» » Tekken (2010) 720p BluRay x264 Esub [Dual Audio] [Hindi+English] - GOPISAHI

Tekken (2010) 720p BluRay x264 Esub [Dual Audio] [Hindi+English] - GOPISAHI

Tekken (2010) 720p BluRay x264 Esub [Dual Audio] [Hindi+English] - GOPISAHI





File size : 638 MiB
Duration : 1 h 32 min
Overall bit rate : 968 kb/s
Movie name : Tekken 2010 GOPISAHI

Video
Format : AVC
Codec ID : V_MPEG4/ISO/AVC
Duration : 1 h 31 min
Bit rate : 800 kb/s
Width : 1 280 pixels
Height : 546 pixels
Display aspect ratio : 2.35:1
Frame rate mode : Constant
Frame rate : 23.976 (24000/1001) FPS
Stream size : 522 MiB (82%)
Writing library : x264

Audio #1
Format : AAC
Duration : 1 h 26 min
Bit rate : 91.8 kb/s
Channel(s) : 6 channels
Channel positions : Front: L C R, Side: L R, LFE
Sampling rate : 44.1 kHz
Frame rate : 43.066 FPS (1024 SPF)
Stream size : 57.0 MiB (9%)
Language : Hindi

Audio #2
Format : AAC
Duration : 1 h 31 min
Bit rate : 87.4 kb/s
Channel(s) : 6 channels
Channel positions : Front: L C R, Side: L R, LFE
Sampling rate : 44.1 kHz
Frame rate : 43.066 FPS (1024 SPF)
Stream size : 57.1 MiB (9%)
Language : English

Text
Language : English 



Tekken (2010) 720p BluRay x264 Esub [Dual Audio] [Hindi+English] - GOPISAHI
Tekken (2010) 720p BluRay x264 Esub [Dual Audio] [Hindi+English] - GOPISAHI
Tekken (2010) 720p BluRay x264 Esub [Dual Audio] [Hindi+English] - GOPISAHI


SINGLE DIRECT FAST LINKS



http://www.heroupload.com/2853f76de7cc6ccd/Tekken_2010_720p_M-HD_Esub_BluRay_Dual_Audio_English_Hindi_GOPISAHI.mkv



Tags: Tekken

Comments:

Dear visitor, you went to the site as unregistered user
We encourage you to create an account or enter the site under your name

Add comment

Name:*
E-Mail:*
Text:
Bold Italic Underline Strike | Align left Center Align right | Insert smilies Insert link URLInsert protected URL Select color | Add Hidden Text Insert Quote Convert selected text from selection to Cyrillic (Russian) alphabet Insert spoiler
Enter the code: *

Create an account

Advertising