» » Trespass (2011) 720p BluRay x264 Esub [Dual Audio] [Hindi+English] - GOPISAHI

Trespass (2011) 720p BluRay x264 Esub [Dual Audio] [Hindi+English] - GOPISAHI

Trespass (2011) 720p BluRay x264 Esub [Dual Audio] [Hindi+English] - GOPISAHI







Format : Matroska
Format version : Version 4 / Version 2
File size : 567 MiB
Duration : 1 h 30 min
Overall bit rate : 873 kb/s
Movie name : Trespass 2011 GOPISAHI

Video
Format : AVC
Codec ID : V_MPEG4/ISO/AVC
Duration : 1 h 30 min
Bit rate : 700 kb/s
Width : 1 280 pixels
Height : 528 pixels
Display aspect ratio : 2.40:1
Frame rate mode : Constant
Frame rate : 23.976 (24000/1001) FPS
Stream size : 454 MiB (80%)
Writing library : x264

Audio #1
Format : AAC
Duration : 1 h 30 min
Bit rate : 78.4 kb/s
Channel(s) : 6 channels
Channel positions : Front: L C R, Side: L R, LFE
Sampling rate : 44.1 kHz
Frame rate : 43.066 FPS (1024 SPF)
Stream size : 50.9 MiB (9%)
Language : English

Audio #2
Format : AAC
Duration : 1 h 30 min
Bit rate : 92.2 kb/s
Channel(s) : 6 channels
Channel positions : Front: L C R, Side: L R, LFE
Sampling rate : 44.1 kHz
Frame rate : 43.066 FPS (1024 SPF)
Stream size : 59.8 MiB (11%)
Language : Hindi

Text
Language : English 



Trespass (2011) 720p BluRay x264 Esub [Dual Audio] [Hindi+English] - GOPISAHI
Trespass (2011) 720p BluRay x264 Esub [Dual Audio] [Hindi+English] - GOPISAHI
Trespass (2011) 720p BluRay x264 Esub [Dual Audio] [Hindi+English] - GOPISAHI

SINGLE DIRECT FAST LINKS


http://www.heroupload.com/137baf2b8f7254e2/Trespass_2011_720p_Esub_BluRay_Dual_Audio_English_Hindi_GOPISAHI.mkv



Tags: Trespass

Comments:

Dear visitor, you went to the site as unregistered user
We encourage you to create an account or enter the site under your name

Add comment

Name:*
E-Mail:*
Text:
Bold Italic Underline Strike | Align left Center Align right | Insert smilies Insert link URLInsert protected URL Select color | Add Hidden Text Insert Quote Convert selected text from selection to Cyrillic (Russian) alphabet Insert spoiler
Enter the code: *

Create an account

Advertising