» » Blade of the Immortal (2017) JAPANESE 1080p BluRay x264 DTS-FGT

Blade of the Immortal (2017) JAPANESE 1080p BluRay x264 DTS-FGT

Blade of the Immortal (2017) JAPANESE 1080p BluRay x264 DTS-FGT






http://imdb.com/title/tt5084170/

Video
ID                                       : 1
Format                                   : AVC
Format/Info                              : Advanced Video Codec
Format profile                           : High@L4.1
Format settings                          : CABAC / 4 Ref Frames
Format settings, CABAC                   : Yes
Format settings, ReFrames                : 4 frames
Codec ID                                 : V_MPEG4/ISO/AVC
Duration                                 : 2 h 20 min
Bit rate                                 : 12.0 Mb/s
Width                                    : 1 920 pixels
Height                                   : 804 pixels
Display aspect ratio                     : 2.40:1
Frame rate mode                          : Constant
Frame rate                               : 23.976 (24000/1001) FPS
Color space                              : YUV
Chroma subsampling                       : 4:2:0
Bit depth                                : 8 bits
Scan type                                : Progressive
Bits/(Pixel*Frame)                       : 0.324
Stream size                              : 11.8 GiB (87%)
Title                                    : Blade.of.the.Immortal.2017.JAPANESE.1080p.BluRay.x264.DTS-FGT
Writing library                          : x264 core 148 r2795M aaa9aa8
Encoding settings                        : cabac=1 / ref=4 / deblock=1:-2:-2 / analyse=0x3:0x113 / me=umh / subme=9 / psy=1 / psy_rd=1.00:0.15 / mixed_ref=1 / me_range=16 / chroma_me=1 / trellis=2 / 8x8dct=1 / cqm=0 / deadzone=21,11 / fast_pskip=1 / chroma_qp_offset=-3 / threads=24 / lookahead_threads=3 / sliced_threads=0 / nr=0 / decimate=1 / interlaced=0 / bluray_compat=0 / constrained_intra=0 / bframes=3 / b_pyramid=2 / b_adapt=2 / b_bias=0 / direct=3 / weightb=1 / open_gop=0 / weightp=2 / keyint=250 / keyint_min=23 / scenecut=40 / intra_refresh=0 / rc_lookahead=50 / rc=crf / mbtree=1 / crf=17.0 / qcomp=0.60 / qpmin=0 / qpmax=69 / qpstep=4 / ip_ratio=1.40 / aq=1:1.00
Language                                 : English
Default                                  : Yes
Forced                                   : No

Audio
ID                                       : 2
Format                                   : DTS
Format/Info                              : Digital Theater Systems
Codec ID                                 : A_DTS
Duration                                 : 2 h 20 min
Bit rate mode                            : Constant
Bit rate                                 : 1 509 kb/s
Channel(s)                               : 6 channels
Channel positions                        : Front: L C R, Side: L R, LFE
Sampling rate                            : 48.0 kHz
Frame rate                               : 93.750 FPS (512 SPF)
Bit depth                                : 24 bits
Compression mode                         : Lossy
Stream size                              : 1.49 GiB (11%)
Title                                    : Blade.of.the.Immortal.2017.JAPANESE.1080p.BluRay.x264.DTS-FGT
Language                                 : Japanese
Default                                  : No
Forced                                   : No

Text
ID                                       : 3
Format                                   : UTF-8
Codec ID                                 : S_TEXT/UTF8
Codec ID/Info                            : UTF-8 Plain Text
Language                                 : English
Default                                  : Yes
Forced                                   : Yes

Menu
00:00:00.000                             : en:Chapter 01
00:11:51.168                             : en:Chapter 02
00:25:10.675                             : en:Chapter 03
00:42:28.254                             : en:Chapter 04
00:52:53.420                             : en:Chapter 05
01:01:27.684                             : en:Chapter 06
01:16:27.583                             : en:Chapter 07
01:28:38.855                             : en:Chapter 08
01:36:22.109                             : en:Chapter 09
01:45:16.518                             : en:Chapter 10
02:01:52.013                             : en:Chapter 11
02:16:54.080                             : en:Chapter 12
02:20:57.073                             : en:Chapter 13


Blade of the Immortal (2017) JAPANESE 1080p BluRay x264 DTS-FGT
Blade of the Immortal (2017) JAPANESE 1080p BluRay x264 DTS-FGT
Blade of the Immortal (2017) JAPANESE 1080p BluRay x264 DTS-FGT

SINGLE DIRECT FAST LINKS

http://www.heroupload.com/024b9c6c6c2ce9a5/Blade.of.the.Immortal.2017.JAPANESE.1080p.BluRay.x264.DTS-FGT.mkv


1GB LINKS


http://www.heroupload.com/96cd2365129b746d/Blade.of.the.Immortal.2017.JAPANESE.1080p.BluRay.x264.DTS-FGT.part1.rar
http://www.heroupload.com/bc11286f02271a3f/Blade.of.the.Immortal.2017.JAPANESE.1080p.BluRay.x264.DTS-FGT.part2.rar
http://www.heroupload.com/b8676ae61b6b307a/Blade.of.the.Immortal.2017.JAPANESE.1080p.BluRay.x264.DTS-FGT.part3.rar
http://www.heroupload.com/1db441a9d4affff3/Blade.of.the.Immortal.2017.JAPANESE.1080p.BluRay.x264.DTS-FGT.part4.rar
http://www.heroupload.com/1a4dde95336b04d7/Blade.of.the.Immortal.2017.JAPANESE.1080p.BluRay.x264.DTS-FGT.part5.rar
http://www.heroupload.com/7ecd4bff68a286e6/Blade.of.the.Immortal.2017.JAPANESE.1080p.BluRay.x264.DTS-FGT.part6.rar
http://www.heroupload.com/6c09dc08bcdc494e/Blade.of.the.Immortal.2017.JAPANESE.1080p.BluRay.x264.DTS-FGT.part7.rar


Comments:

Dear visitor, you went to the site as unregistered user
We encourage you to create an account or enter the site under your name

Add comment

Name:*
E-Mail:*
Text:
Bold Italic Underline Strike | Align left Center Align right | Insert smilies Insert link URLInsert protected URL Select color | Add Hidden Text Insert Quote Convert selected text from selection to Cyrillic (Russian) alphabet Insert spoiler
Enter the code: *

Create an account

Partner Site

Advertising