» » The Glass Castle (2017) 1080p WEB-DL DD5.1 H264-FGT

The Glass Castle (2017) 1080p WEB-DL DD5.1 H264-FGT

The Glass Castle (2017) 1080p WEB-DL DD5.1 H264-FGT






http://imdb.com/title/tt2378507/

Video
ID                                       : 1
Format                                   : AVC
Format/Info                              : Advanced Video Codec
Format profile                           : High@L4
Format settings, CABAC                   : Yes
Format settings, ReFrames                : 5 frames
Codec ID                                 : V_MPEG4/ISO/AVC
Duration                                 : 2 h 7 min
Bit rate                                 : 4 441 kb/s
Width                                    : 1 920 pixels
Height                                   : 796 pixels
Display aspect ratio                     : 2.40:1
Frame rate mode                          : Constant
Frame rate                               : 23.976 (24000/1001) FPS
Color space                              : YUV
Chroma subsampling                       : 4:2:0
Bit depth                                : 8 bits
Scan type                                : Progressive
Bits/(Pixel*Frame)                       : 0.121
Stream size                              : 3.95 GiB (90%)
Title                                    : The.Glass.Castle.2017.1080p.WEB-DL.DD5.1.H264-FGT
Language                                 : English
Default                                  : Yes
Forced                                   : No
Color range                              : Limited
Color primaries                          : BT.709
Transfer characteristics                 : BT.709
Matrix coefficients                      : BT.709

Audio
ID                                       : 2
Format                                   : AC-3
Format/Info                              : Audio Coding 3
Format settings, Endianness              : Big
Codec ID                                 : A_AC3
Duration                                 : 2 h 7 min
Bit rate mode                            : Constant
Bit rate                                 : 384 kb/s
Channel(s)                               : 6 channels
Channel positions                        : Front: L C R, Side: L R, LFE
Sampling rate                            : 48.0 kHz
Frame rate                               : 31.250 FPS (1536 spf)
Bit depth                                : 16 bits
Compression mode                         : Lossy
Delay relative to video                  : -43 ms
Stream size                              : 350 MiB (8%)
Title                                    : The.Glass.Castle.2017.1080p.WEB-DL.DD5.1.H264-FGT
Language                                 : English
Service kind                             : Complete Main
Default                                  : Yes
Forced                                   : No

Text
ID                                       : 3
Format                                   : UTF-8
Codec ID                                 : S_TEXT/UTF8
Codec ID/Info                            : UTF-8 Plain Text
Language                                 : English
Default                                  : Yes
Forced                                   : No

Menu
00:00:00.000                             : en:Chapter 1
00:09:02.542                             : en:Chapter 2
00:18:49.837                             : en:Chapter 3
00:26:53.111                             : en:Chapter 4
00:37:26.202                             : en:Chapter 5
00:48:55.849                             : en:Chapter 6
00:56:35.558                             : en:Chapter 7
01:05:51.363                             : en:Chapter 8
01:14:20.830                             : en:Chapter 9
01:25:07.518                             : en:Chapter 10
01:36:13.559                             : en:Chapter 11
01:43:51.516                             : en:Chapter 12
01:58:45.284                             : en:Chapter 13


The Glass Castle (2017) 1080p WEB-DL DD5.1 H264-FGT
SINGLE DIRECT FAST LINKS

http://www.heroupload.com/a658874668538ccd/The.Glass.Castle.2017.1080p.WEB-DL.DD5.1.H264-FGT.mkv


1GB LINKS


http://www.heroupload.com/47e5ab6f2adad823/The.Glass.Castle.2017.1080p.WEB-DL.DD5.1.H264-FGT.part1.rar
http://www.heroupload.com/0d26ea51f59ce09c/The.Glass.Castle.2017.1080p.WEB-DL.DD5.1.H264-FGT.part2.rar
http://www.heroupload.com/4c7d15433f684867/The.Glass.Castle.2017.1080p.WEB-DL.DD5.1.H264-FGT.part3.rar
http://www.heroupload.com/ec0a067250db7386/The.Glass.Castle.2017.1080p.WEB-DL.DD5.1.H264-FGT.part4.rar
http://www.heroupload.com/6934de1d14fc5691/The.Glass.Castle.2017.1080p.WEB-DL.DD5.1.H264-FGT.part5.rar


Comments:

Dear visitor, you went to the site as unregistered user
We encourage you to create an account or enter the site under your name

Add comment

Name:*
E-Mail:*
Text:
Bold Italic Underline Strike | Align left Center Align right | Insert smilies Insert link URLInsert protected URL Select color | Add Hidden Text Insert Quote Convert selected text from selection to Cyrillic (Russian) alphabet Insert spoiler
Enter the code: *

Create an account

Partner Site

Advertising