» » The Disaster Artist (2017) DVDScr XVID AC3 HQ Hive-CM8

The Disaster Artist (2017) DVDScr XVID AC3 HQ Hive-CM8


The Disaster Artist (2017) DVDScr XVID AC3 HQ Hive-CM8







http://www.imdb.com/title/tt3521126/


General
Complete name                  : The.Disaster.Artist.2017.DVDScr.XVID.AC3.HQ.Hive-CM8.avi
Format                         : AVI
Format/Info                    : Audio Video Interleave
File size                      : 1.41 GiB
Duration                       : 1h 43mn
Overall bit rate               : 1 944 Kbps
Writing application            : Nandub v1.0rc2
Writing library                : Nandub build 1853/release

Video
ID                             : 0
Format                         : MPEG-4 Visual
Format profile                 : Advanced Simple@L5
Format settings, BVOP          : 2
Format settings, QPel          : Yes
Format settings, GMC           : No warppoints
Format settings, Matrix        : Default (H.263)
Muxing mode                    : Packed bitstream
Codec ID                       : XVID
Codec ID/Hint                  : XviD
Duration                       : 1h 43mn
Bit rate                       : 1 676 Kbps
Width                          : 720 pixels
Height                         : 304 pixels
Display aspect ratio           : 2.35:1
Frame rate                     : 30.000 fps
Color space                    : YUV
Chroma subsampling             : 4:2:0
Bit depth                      : 8 bits
Scan type                      : Progressive
Compression mode               : Lossy
Bits/(Pixel*Frame)             : 0.255
Stream size                    : 1.21 GiB (86%)
Writing library                : XviD 1.2.1 (UTC 2008-12-04)

Audio
ID                             : 1
Format                         : AC-3
Format/Info                    : Audio Coding 3
Mode extension                 : CM (complete main)
Format settings, Endianness    : Big
Codec ID                       : 2000
Duration                       : 1h 43mn
Bit rate mode                  : Constant
Bit rate                       : 256 Kbps
Channel(s)                     : 2 channels
Channel positions              : Front: L R
Sampling rate                  : 48.0 KHz
Bit depth                      : 16 bits
Compression mode               : Lossy
Delay relative to video        : 6ms
Stream size                    : 189 MiB (13%)
Alignment                      : Split accross interleaves
Interleave, duration           : 33 ms (1.00 video frame)
Interleave, preload duration   : 500 ms




The Disaster Artist (2017) DVDScr XVID AC3 HQ Hive-CM8

The Disaster Artist (2017) DVDScr XVID AC3 HQ Hive-CM8

The Disaster Artist (2017) DVDScr XVID AC3 HQ Hive-CM8

The Disaster Artist (2017) DVDScr XVID AC3 HQ Hive-CM8

The Disaster Artist (2017) DVDScr XVID AC3 HQ Hive-CM8

The Disaster Artist (2017) DVDScr XVID AC3 HQ Hive-CM8

SINGLE DIRECT FAST LINKS


https://www.heroupload.com/88a001098feb0917/The.Disaster.Artist.2017.DVDScr.XVID.AC3.HQ.Hive-CM8.avi



http://filefloater.com/9jg/The.Disaster.Artist.2017.DVDScr.XVID.AC3.HQ.Hive-CM8.avi




Tags: The

Comments:

Dear visitor, you went to the site as unregistered user
We encourage you to create an account or enter the site under your name

Add comment

Name:*
E-Mail:*
Text:
Bold Italic Underline Strike | Align left Center Align right | Insert smilies Insert link URLInsert protected URL Select color | Add Hidden Text Insert Quote Convert selected text from selection to Cyrillic (Russian) alphabet Insert spoiler
Enter the code: *

Create an account

Advertising