» » Khaidi No. 150 (2017) Uncut 720p HDRip x264 DD2.0 [Dual Audio][Hindi+Telugu] KM Exclu

Khaidi No. 150 (2017) Uncut 720p HDRip x264 DD2.0 [Dual Audio][Hindi+Telugu] KM Exclu

Khaidi No. 150 (2017) Uncut 720p HDRip x264 DD2.0 [Dual Audio][Hindi+Telugu] KM Exclu







General
Format                      : Matroska
Format version              : Version 4 / Version 2
File size                   : 1.60 GiB
Duration                    : 2 h 19 min
Overall bit rate            : 1 643 kb/s
Encoded date                : UTC 2017-11-27 05:37:44
Writing application         : mkvmerge v17.0.0 ('Be Ur Friend') 64-bit
Writing library             : libebml v1.3.5 + libmatroska v1.4.8

Video
ID                          : 1
Format                      : AVC
Format/Info                 : Advanced Video Codec
Format profile              : High@L3.1
Format settings, CABAC      : Yes
Format settings, RefFrames  : 4 frames
Codec ID                    : V_MPEG4/ISO/AVC
Duration                    : 2 h 17 min
Bit rate                    : 1 312 kb/s
Width                       : 1 280 pixels
Height                      : 544 pixels
Display aspect ratio        : 2.35:1
Frame rate mode             : Constant
Frame rate                  : 25.000 FPS
Color space                 : YUV
Chroma subsampling          : 4:2:0
Bit depth                   : 8 bits
Scan type                   : Progressive
Bits/(Pixel*Frame)          : 0.075
Stream size                 : 1.26 GiB (79%)
Writing library             : x264 core 148 r2744 b97ae06
Encoding settings           : cabac=1 / ref=3 / deblock=1:0:0 / analyse=0x3:0x113 / me=hex / subme=7 / psy=1 / psy_rd=1.00:0.00 / mixed_ref=1 / me_range=16 / chroma_me=1 / trellis=1 / 8x8dct=1 / cqm=0 / deadzone=21,11 / fast_pskip=1 / chroma_qp_offset=-2 / threads=17 / lookahead_threads=2 / sliced_threads=0 / nr=0 / decimate=1 / interlaced=0 / bluray_compat=0 / constrained_intra=0 / bframes=3 / b_pyramid=2 / b_adapt=1 / b_bias=0 / direct=1 / weightb=1 / open_gop=0 / weightp=2 / keyint=250 / keyint_min=25 / scenecut=40 / intra_refresh=0 / rc_lookahead=40 / rc=2pass / mbtree=1 / bitrate=1312 / ratetol=1.0 / qcomp=0.60 / qpmin=0 / qpmax=69 / qpstep=4 / cplxblur=20.0 / qblur=0.5 / ip_ratio=1.40 / aq=1:1.00
Language                    : Telugu
Default                     : Yes
Forced                      : No

Audio #1
ID                          : 2
Format                      : AC-3
Format/Info                 : Audio Coding 3
Format settings, Endianness : Big
Codec ID                    : A_AC3
Duration                    : 2 h 17 min
Bit rate mode               : Constant
Bit rate                    : 160 kb/s
Channel(s)                  : 6 channels
Channel positions           : Front: L C R, Side: L R, LFE
Sampling rate               : 44.1 kHz
Frame rate                  : 28.711 FPS (1536 SPF)
Bit depth                   : 16 bits
Compression mode            : Lossy
Stream size                 : 157 MiB (10%)
Language                    : Telugu
Service kind                : Complete Main
Default                     : No
Forced                      : No

Audio #2
ID                          : 3
Format                      : AAC
Format/Info                 : Advanced Audio Codec
Format profile              : LC
Codec ID                    : A_AAC
Duration                    : 2 h 19 min
Bit rate                    : 192 kb/s
Channel(s)                  : 2 channels
Channel positions           : Front: L R
Sampling rate               : 44.1 kHz
Frame rate                  : 43.066 FPS (1024 SPF)
Compression mode            : Lossy
Stream size                 : 192 MiB (12%)
Language                    : Hindi
Default                     : Yes
Forced                      : Yes

Text
ID                          : 4
Format                      : UTF-8
Codec ID                    : S_TEXT/UTF8
Codec ID/Info               : UTF-8 Plain Text
Duration                    : 2 h 16 min
Bit rate                    : 82 b/s
Count of elements           : 2289
Stream size                 : 82.1 KiB (0%)
Language                    : English
Default                     : Yes
Forced                      : No


Khaidi No. 150 (2017) Uncut 720p HDRip x264 DD2.0 [Dual Audio][Hindi+Telugu] KM ExcluKhaidi No. 150 (2017) Uncut 720p HDRip x264 DD2.0 [Dual Audio][Hindi+Telugu] KM ExcluKhaidi No. 150 (2017) Uncut 720p HDRip x264 DD2.0 [Dual Audio][Hindi+Telugu] KM ExcluKhaidi No. 150 (2017) Uncut 720p HDRip x264 DD2.0 [Dual Audio][Hindi+Telugu] KM ExcluKhaidi No. 150 (2017) Uncut 720p HDRip x264 DD2.0 [Dual Audio][Hindi+Telugu] KM ExcluKhaidi No. 150 (2017) Uncut 720p HDRip x264 DD2.0 [Dual Audio][Hindi+Telugu] KM ExcluKhaidi No. 150 (2017) Uncut 720p HDRip x264 DD2.0 [Dual Audio][Hindi+Telugu] KM ExcluKhaidi No. 150 (2017) Uncut 720p HDRip x264 DD2.0 [Dual Audio][Hindi+Telugu] KM ExcluKhaidi No. 150 (2017) Uncut 720p HDRip x264 DD2.0 [Dual Audio][Hindi+Telugu] KM ExcluKhaidi No. 150 (2017) Uncut 720p HDRip x264 DD2.0 [Dual Audio][Hindi+Telugu] KM Exclu
SINGLE DIRECT FAST LINKS


http://www.heroupload.com/0060af9382d1bcfb/Khaidi.No.150.2017.720P.Uncut.HDRip.x264.EngSubs.Dual.Audio.Hindi.DD20+Telugu.DD5.1-Kingmaker.Exclusive.mkv



Tags: Khaidi

Comments:

Dear visitor, you went to the site as unregistered user
We encourage you to create an account or enter the site under your name

TyroneProda

31 January 2018 15:24

how long does it take for a viagra pill to start working
<a href="http://viagrahlsacft.com/#">viagra without doctor</a>
precio del sildenafil 50 mg
viagra without a doctor's prescription
how to use viagra tablets for men
<a href="http://viagravbndcvef.com/#">generic viagra</a>
hay generico de viagra
generic viagra
safe to get pregnant on viagra

SergioMes

31 January 2018 19:41

can you buy viagra over the counter in california
<a href="http://viagrahlsacft.com/#">viagra without prescription</a>
can i buy viagra in mexico
viagra without prescription
getting rid viagra spam
<a href="http://viagravbndcvef.com/#">generic viagra online</a>
where the best place to buy generic viagra
generic viagra
viagra for sale in the philippines

JamesLaw

7 February 2018 21:17

mighty slots online casino
<a href="http://onlineroulette.space/#">free roulette games</a>
casino internets real
п»їonline roulette
online money game play
<a href="http://online-casino.party/#">best online casino</a>
online casino legal in california
online casino games
online gambling eu
<a href="http://online-slots.party/#">slot games</a>
legit online gambling sites
casino slots
slots machine video game

Josephknise

8 February 2018 22:05

online casinos that allow americans
<a href="http://onlineroulette.space/#">roulette game</a>
online casino slots vegas
roulette game
top slots
<a href="http://online-casino.party/#">online casino games</a>
craps on line
casino games
best gambling game
<a href="http://online-slots.party/#">slots online</a>
roulette spins
online slots
online casino allowing u s players

RobertCaM

4 May 2018 18:17

can you take aspirin viagra together
<a href="http://viagradoctorsnbhu.com/#">viagra without a doctor prescription</a>
is there a generic viagra in the usa
viagra without doctor
sildenafil 50 mg plm
<a href="http://canadapharmaciesjmfge.com/#">canadian online pharmacies</a>
best canadian mail order pharmacies
canadian pharmacies shipping to usa
canadian viagra

Joshuashare

4 May 2018 21:15

viagra sildenafil online
<a href="http://viagradoctorsnbhu.com/#">viagra without a doctor prescription</a>
uso sildenafil 50 mg
viagra without doctor
viagra generico nome
<a href="http://canadapharmaciesjmfge.com/#">top rated online canadian pharmacies</a>
northwestpharmacy
top rated online canadian pharmacies
CVS Pharmacy

BrianOrano

5 August 2018 05:47

buy viagra online bangalore
<a href="http://viagrarutjdfk.com/buy-viagra-in-ottawa.html">what is viagra 50 mg</a>
buying generic viagra online
viagra generico precio mexico

Arnoldfug

6 August 2018 15:51

how to get cheap viagra
<a href="http://viagranbdnr.com/generic-viagra-cheap-shipping.html">do
es viagra pills expire</a>
viagra price cvs pharmacy
where can i buy generic viagra online safely

Add comment

Name:*
E-Mail:*
Text:
Bold Italic Underline Strike | Align left Center Align right | Insert smilies Insert link URLInsert protected URL Select color | Add Hidden Text Insert Quote Convert selected text from selection to Cyrillic (Russian) alphabet Insert spoiler
Enter the code: *

Create an account

Advertising