» » American Made (2017) 1080p WEB-DL DD5.1 H264-FGT

American Made (2017) 1080p WEB-DL DD5.1 H264-FGT

American Made (2017) 1080p WEB-DL DD5.1 H264-FGT
American Made (2017) 1080p WEB-DL DD5.1 H264-FGT : 4.44 GB





http://imdb.com/title/tt3532216/

Video
ID                                       : 1
Format                                   : AVC
Format/Info                              : Advanced Video Codec
Format profile                           : High@L4
Format settings                          : CABAC / 4 Ref Frames
Format settings, CABAC                   : Yes
Format settings, ReFrames                : 4 frames
Codec ID                                 : V_MPEG4/ISO/AVC
Duration                                 : 1 h 55 min
Bit rate                                 : 5 020 kb/s
Width                                    : 1 916 pixels
Height                                   : 1 032 pixels
Display aspect ratio                     : 1.85:1
Frame rate mode                          : Constant
Frame rate                               : 24.000 FPS
Color space                              : YUV
Chroma subsampling                       : 4:2:0
Bit depth                                : 8 bits
Scan type                                : Progressive
Bits/(Pixel*Frame)                       : 0.106
Stream size                              : 4.04 GiB (91%)
Title                                    : American.Made.2017.1080p.WEB-DL.DD5.1.H264-FGT
Language                                 : English
Default                                  : Yes
Forced                                   : No
Color range                              : Limited
Color primaries                          : BT.709
Transfer characteristics                 : BT.709
Matrix coefficients                      : BT.709

Audio
ID                                       : 2
Format                                   : AC-3
Format/Info                              : Audio Coding 3
Codec ID                                 : A_AC3
Duration                                 : 1 h 55 min
Bit rate mode                            : Constant
Bit rate                                 : 384 kb/s
Channel(s)                               : 6 channels
Channel positions                        : Front: L C R, Side: L R, LFE
Sampling rate                            : 48.0 kHz
Frame rate                               : 31.250 FPS (1536 SPF)
Bit depth                                : 16 bits
Compression mode                         : Lossy
Stream size                              : 317 MiB (7%)
Title                                    : American.Made.2017.1080p.WEB-DL.DD5.1.H264-FGT
Language                                 : English
Service kind                             : Complete Main
Default                                  : Yes
Forced                                   : No

Text
ID                                       : 3
Format                                   : UTF-8
Codec ID                                 : S_TEXT/UTF8
Codec ID/Info                            : UTF-8 Plain Text
Title                                    : FORCED
Language                                 : English
Default                                  : Yes
Forced                                   : Yes

Menu
00:00:00.000                             : en:1
00:05:59.901                             : en:2
00:10:42.098                             : en:3
00:14:36.080                             : en:4
00:21:19.190                             : en:5
00:27:24.805                             : en:6
00:33:47.269                             : en:7
00:41:02.162                             : en:8
00:46:15.600                             : en:9
00:51:56.690                             : en:10
00:54:59.289                             : en:11
00:59:57.754                             : en:12
01:07:29.413                             : en:13
01:13:06.082                             : en:14
01:17:12.453                             : en:15
01:23:20.904                             : en:16
01:26:16.286                             : en:17
01:33:34.056                             : en:18
01:38:39.027                             : en:19
01:46:16.525                             : en:20


American Made (2017) 1080p WEB-DL DD5.1 H264-FGT
American Made (2017) 1080p WEB-DL DD5.1 H264-FGT
American Made (2017) 1080p WEB-DL DD5.1 H264-FGT


SINGLE DIRECT FAST LINKS

http://www.heroupload.com/e959bf3b43becba1/American.Made.2017.1080p.WEB-DL.DD5.1.H264-FGT.mkv


1GB LINKS


http://www.heroupload.com/fddcd36e7642448d/American.Made.2017.1080p.WEB-DL.DD5.1.H264-FGT.part1.rar
http://www.heroupload.com/fa6b2349752cc523/American.Made.2017.1080p.WEB-DL.DD5.1.H264-FGT.part2.rar
http://www.heroupload.com/647adf93dc3cdfac/American.Made.2017.1080p.WEB-DL.DD5.1.H264-FGT.part3.rar
http://www.heroupload.com/6af17033bd7834f2/American.Made.2017.1080p.WEB-DL.DD5.1.H264-FGT.part4.rar



Tags: American

Comments:

Dear visitor, you went to the site as unregistered user
We encourage you to create an account or enter the site under your name

Add comment

Name:*
E-Mail:*
Text:
Bold Italic Underline Strike | Align left Center Align right | Insert smilies Insert link URLInsert protected URL Select color | Add Hidden Text Insert Quote Convert selected text from selection to Cyrillic (Russian) alphabet Insert spoiler
Enter the code: *

Create an account

Advertising