» » Crown Heights (2017) 1080p WEB-DL DD5.1 H264-FGT

Crown Heights (2017) 1080p WEB-DL DD5.1 H264-FGT

Crown Heights (2017) 1080p WEB-DL DD5.1 H264-FGT






http://imdb.com/title/tt3268340/

Video
ID                                       : 1
Format                                   : AVC
Format/Info                              : Advanced Video Codec
Format profile                           : High@L4
Format settings                          : CABAC / 5 Ref Frames
Format settings, CABAC                   : Yes
Format settings, ReFrames                : 5 frames
Codec ID                                 : V_MPEG4/ISO/AVC
Duration                                 : 1 h 40 min
Bit rate                                 : 4 504 kb/s
Width                                    : 1 916 pixels
Height                                   : 796 pixels
Display aspect ratio                     : 2.40:1
Frame rate mode                          : Constant
Frame rate                               : 23.976 (24000/1001) FPS
Color space                              : YUV
Chroma subsampling                       : 4:2:0
Bit depth                                : 8 bits
Scan type                                : Progressive
Bits/(Pixel*Frame)                       : 0.123
Stream size                              : 3.15 GiB (90%)
Title                                    : Crown.Heights.2017.1080p.WEB-DL.DD5.1.H264-FGT
Language                                 : English
Default                                  : Yes
Forced                                   : No
Color range                              : Limited
Color primaries                          : BT.709
Transfer characteristics                 : BT.709
Matrix coefficients                      : BT.709

Audio
ID                                       : 2
Format                                   : AC-3
Format/Info                              : Audio Coding 3
Codec ID                                 : A_AC3
Duration                                 : 1 h 40 min
Bit rate mode                            : Constant
Bit rate                                 : 384 kb/s
Channel(s)                               : 6 channels
Channel positions                        : Front: L C R, Side: L R, LFE
Sampling rate                            : 48.0 kHz
Frame rate                               : 31.250 FPS (1536 SPF)
Bit depth                                : 16 bits
Compression mode                         : Lossy
Delay relative to video                  : -42 ms
Stream size                              : 275 MiB (8%)
Title                                    : Crown.Heights.2017.1080p.WEB-DL.DD5.1.H264-FGT
Language                                 : English
Service kind                             : Complete Main
Default                                  : Yes
Forced                                   : No

Text
ID                                       : 3
Format                                   : UTF-8
Codec ID                                 : S_TEXT/UTF8
Codec ID/Info                            : UTF-8 Plain Text
Language                                 : English
Default                                  : Yes
Forced                                   : No

Menu
00:00:00.000                             : en:Chapter 1
00:09:02.000                             : en:Chapter 2
00:15:09.000                             : en:Chapter 3
00:22:11.000                             : en:Chapter 4
00:26:12.000                             : en:Chapter 5
00:29:43.000                             : en:Chapter 6
00:34:10.000                             : en:Chapter 7
00:40:59.000                             : en:Chapter 8
00:47:07.000                             : en:Chapter 9
00:51:36.000                             : en:Chapter 10
00:59:29.000                             : en:Chapter 11
01:04:28.000                             : en:Chapter 12
01:12:42.000                             : en:Chapter 13
01:20:17.000                             : en:Chapter 14
01:25:50.000                             : en:Chapter 15
01:32:43.000                             : en:Chapter 16

Crown Heights (2017) 1080p WEB-DL DD5.1 H264-FGT
SINGLE DIRECT FAST LINKS
http://www.heroupload.com/80ca1ef0558e7f25/Crown.Heights.2017.1080p.WEB-DL.DD5.1.H264-FGT.mkv


http://filefloater.com/410/Crown.Heights.2017.1080p.WEB-DL.DD5.1.H264-FGT.mkv

1GB LINKS

http://www.heroupload.com/8a738b6b91d6a124/Crown.Heights.2017.1080p.WEB-DL.DD5.1.H264-FGT.part1.rar
http://www.heroupload.com/cbe76037fea5e882/Crown.Heights.2017.1080p.WEB-DL.DD5.1.H264-FGT.part2.rar
http://www.heroupload.com/efebb568ccce1cd6/Crown.Heights.2017.1080p.WEB-DL.DD5.1.H264-FGT.part3.rar
http://www.heroupload.com/be3950a42a080357/Crown.Heights.2017.1080p.WEB-DL.DD5.1.H264-FGT.part4.rar



http://filefloater.com/411/Crown.Heights.2017.1080p.WEB-DL.DD5.1.H264-FGT.part1.rar
http://filefloater.com/412/Crown.Heights.2017.1080p.WEB-DL.DD5.1.H264-FGT.part2.rar
http://filefloater.com/413/Crown.Heights.2017.1080p.WEB-DL.DD5.1.H264-FGT.part3.rar
http://filefloater.com/414/Crown.Heights.2017.1080p.WEB-DL.DD5.1.H264-FGT.part4.rar


Comments:

Dear visitor, you went to the site as unregistered user
We encourage you to create an account or enter the site under your name

Add comment

Name:*
E-Mail:*
Text:
Bold Italic Underline Strike | Align left Center Align right | Insert smilies Insert link URLInsert protected URL Select color | Add Hidden Text Insert Quote Convert selected text from selection to Cyrillic (Russian) alphabet Insert spoiler
Enter the code: *

Create an account

Partner Site

Advertising