» » Prem Ratan Dhan Payo (2015) 720p - BluRay - x264 - DD5.1-NhaNc3

Prem Ratan Dhan Payo (2015) 720p - BluRay - x264 - DD5.1-NhaNc3

Prem Ratan Dhan Payo (2015) 720p - BluRay - x264 - DD5.1-NhaNc3



Format                      : Matroska
Format version              : Version 2
File size                   : 3.22 GiB
Duration                    : 2 h 43 min
Overall bit rate            : 2 817 kb/s
Encoded date                : UTC 2016-02-16 07:40:55
Writing application         : mkvmerge v4.9.1 ('Ich will') built on Jul 11 2011 23:53:15
Writing library             : libebml v1.2.1 + libmatroska v1.1.1

Video
ID                          : 1
Format                      : AVC
Format/Info                 : Advanced Video Codec
Format profile              : High@L4.1
Format settings, CABAC      : Yes
Format settings, RefFrames  : 8 frames
Codec ID                    : V_MPEG4/ISO/AVC
Duration                    : 2 h 43 min
Bit rate                    : 2 432 kb/s
Width                       : 1 280 pixels
Height                      : 544 pixels
Display aspect ratio        : 2.35:1
Frame rate mode             : Constant
Frame rate                  : 24.000 FPS
Color space                 : YUV
Chroma subsampling          : 4:2:0
Bit depth                   : 8 bits
Scan type                   : Progressive
Bits/(Pixel*Frame)          : 0.146
Stream size                 : 2.72 GiB (84%)
Writing library             : x264 core 146 r2538 121396c
Encoding settings           : cabac=1 / ref=8 / deblock=1:0:0 / analyse=0x3:0x113 / me=umh / subme=9 / psy=1 / psy_rd=1.00:0.00 / mixed_ref=1 / me_range=16 / chroma_me=1 / trellis=1 / 8x8dct=1 / cqm=0 / deadzone=21,11 / fast_pskip=1 / chroma_qp_offset=-2 / threads=8 / lookahead_threads=1 / sliced_threads=0 / nr=0 / decimate=1 / interlaced=0 / bluray_compat=0 / constrained_intra=0 / bframes=5 / b_pyramid=2 / b_adapt=1 / b_bias=0 / direct=1 / weightb=1 / open_gop=0 / weightp=2 / keyint=250 / keyint_min=24 / scenecut=40 / intra_refresh=0 / rc_lookahead=40 / rc=2pass / mbtree=1 / bitrate=2432 / ratetol=1.0 / qcomp=0.60 / qpmin=0 / qpmax=69 / qpstep=4 / cplxblur=20.0 / qblur=0.5 / vbv_maxrate=20000 / vbv_bufsize=15000 / nal_hrd=none / filler=0 / ip_ratio=1.40 / aq=1:1.00
Language                    : English
Default                     : Yes
Forced                      : No
Color range                 : Limited
Color primaries             : BT.709
Transfer characteristics    : BT.709
Matrix coefficients         : BT.709

Audio
ID                          : 2
Format                      : AC-3
Format/Info                 : Audio Coding 3
Format settings, Endianness : Big
Codec ID                    : A_AC3
Duration                    : 2 h 43 min
Bit rate mode               : Constant
Bit rate                    : 384 kb/s
Channel(s)                  : 6 channels
Channel positions           : Front: L C R, Side: L R, LFE
Sampling rate               : 48.0 kHz
Frame rate                  : 31.250 FPS (1536 SPF)
Bit depth                   : 16 bits
Compression mode            : Lossy
Stream size                 : 450 MiB (14%)
Language                    : English
Service kind                : Complete Main
Default                     : Yes
Forced                      : Yes

Text
ID                          : 3
Format                      : UTF-8
Codec ID                    : S_TEXT/UTF8
Codec ID/Info               : UTF-8 Plain Text
Title                       : DDR
Language                    : English
Default                     : Yes
Forced                      : No
Statistics Tags Issue       : mkvmerge v8.5.2 ('Crosses') 32bit 2016-02-10 17:42:42 / mkvmerge v4.9.1 ('Ich will') built on Jul 11 2011 23:53:15 2016-02-16 07:40:55
FromStats_BitRate           : 47
FromStats_Duration          : 02:41:46.792000000
FromStats_FrameCount        : 1672
FromStats_StreamSize        : 57458

Menu
00:00:00.000                : en:00:00:00.000
00:04:24.333                : en:00:04:24.333
00:05:41.000                : en:00:05:41.000
00:09:12.208                : en:00:09:12.208
00:12:23.708                : en:00:12:23.708
00:16:50.583                : en:00:16:50.583
00:20:39.500                : en:00:20:39.500
00:24:51.583                : en:00:24:51.583
00:30:57.417                : en:00:30:57.417
00:33:19.875                : en:00:33:19.875
00:36:05.750                : en:00:36:05.750
00:41:39.292                : en:00:41:39.292
00:44:27.458                : en:00:44:27.458
00:58:21.000                : en:00:58:21.000
01:03:09.417                : en:01:03:09.417
01:07:09.250                : en:01:07:09.250
01:16:33.458                : en:01:16:33.458
01:26:20.042                : en:01:26:20.042
01:36:50.208                : en:01:36:50.208
01:44:25.000                : en:01:44:25.000
01:50:13.042                : en:01:50:13.042
01:58:41.208                : en:01:58:41.208
02:10:09.625                : en:02:10:09.625
02:25:39.208                : en:02:25:39.208
02:40:05.583                : en:02:40:05.583


Prem Ratan Dhan Payo (2015) 720p - BluRay - x264 - DD5.1-NhaNc3
SINGLE DIRECT FAST LINKS

http://www.heroupload.us/8e6f551b48b75fc5/Prem.Ratan.Dhan.Payo.2015.720p.BluRay.nHD.x264-NhaNc3.mkv



http://filefloater.com/1JN1/Prem.Ratan.Dhan.Payo.2015.720p.BluRay.nHD.x264-NhaNc3.mkv


Buy Premium From My Links & Support Me

Tags: Prem

Comments:

Dear visitor, you went to the site as unregistered user
We encourage you to create an account or enter the site under your name

Add comment

Name:*
E-Mail:*
Text:
Bold Italic Underline Strike | Align left Center Align right | Insert smilies Insert link URLInsert protected URL Select color | Add Hidden Text Insert Quote Convert selected text from selection to Cyrillic (Russian) alphabet Insert spoiler
Enter the code: *

Create an account

Advertising