» » Daringbaaz 3 - Mister (2017) 720p - Untouched HDTV - AVC - AAC-DUS Exclusive

Daringbaaz 3 - Mister (2017) 720p - Untouched HDTV - AVC - AAC-DUS Exclusive

Daringbaaz 3 - Mister (2017) 720p - Untouched HDTV - AVC - AAC-DUS Exclusive





General
Format                                   : MPEG-4
Format profile                           : Base Media
Codec ID                                 : isom (isom/iso2/avc1/mp41)
File size                                : 1.78 GiB
Duration                                 : 2 h 34 min
Overall bit rate                         : 1 645 kb/s
Writing application                      : Lavf57.82.101

Video
ID                                       : 1
Format                                   : AVC
Format/Info                              : Advanced Video Codec
Format profile                           : Main@L3.1
Format settings                          : CABAC / 2 Ref Frames
Format settings, CABAC                   : Yes
Format settings, RefFrames               : 2 frames
Format settings, GOP                     : M=4, N=25
Codec ID                                 : avc1
Codec ID/Info                            : Advanced Video Coding
Duration                                 : 2 h 34 min
Bit rate                                 : 1 513 kb/s
Width                                    : 1 280 pixels
Height                                   : 720 pixels
Display aspect ratio                     : 16:9
Frame rate mode                          : Variable
Frame rate                               : 25.000 FPS
Minimum frame rate                       : 0.194 FPS
Maximum frame rate                       : 25.000 FPS
Color space                              : YUV
Chroma subsampling                       : 4:2:0
Bit depth                                : 8 bits
Scan type                                : Progressive
Bits/(Pixel*Frame)                       : 0.066
Stream size                              : 1.63 GiB (92%)

Audio
ID                                       : 2
Format                                   : AAC
Format/Info                              : Advanced Audio Codec
Format profile                           : LC
Codec ID                                 : mp4a-40-2
Duration                                 : 2 h 34 min
Bit rate mode                            : Constant
Bit rate                                 : 128 kb/s
Channel(s)                               : 2 channels
Channel positions                        : Front: L R
Sampling rate                            : 48.0 kHz
Frame rate                               : 46.875 FPS (1024 SPF)
Compression mode                         : Lossy
Stream size                              : 142 MiB (8%)
Default                                  : Yes
Alternate group                          : 1


Daringbaaz 3 - Mister (2017) 720p - Untouched HDTV - AVC - AAC-DUS ExclusiveDaringbaaz 3 - Mister (2017) 720p - Untouched HDTV - AVC - AAC-DUS ExclusiveDaringbaaz 3 - Mister (2017) 720p - Untouched HDTV - AVC - AAC-DUS ExclusiveDaringbaaz 3 - Mister (2017) 720p - Untouched HDTV - AVC - AAC-DUS ExclusiveDaringbaaz 3 - Mister (2017) 720p - Untouched HDTV - AVC - AAC-DUS ExclusiveDaringbaaz 3 - Mister (2017) 720p - Untouched HDTV - AVC - AAC-DUS ExclusiveDaringbaaz 3 - Mister (2017) 720p - Untouched HDTV - AVC - AAC-DUS ExclusiveDaringbaaz 3 - Mister (2017) 720p - Untouched HDTV - AVC - AAC-DUS ExclusiveDaringbaaz 3 - Mister (2017) 720p - Untouched HDTV - AVC - AAC-DUS Exclusive


SINGLE DIRECT FAST LINKS
http://www.heroupload.com/4098549b1c73df43/Daringbaaz.3.Mister.2017.720p.HDTV.Untouched-DUS.mp4


http://filefloater.com/95h/Daringbaaz.3.Mister.2017.720p.HDTV.Untouched-DUS.mp4


Comments:

Dear visitor, you went to the site as unregistered user
We encourage you to create an account or enter the site under your name

Add comment

Name:*
E-Mail:*
Text:
Bold Italic Underline Strike | Align left Center Align right | Insert smilies Insert link URLInsert protected URL Select color | Add Hidden Text Insert Quote Convert selected text from selection to Cyrillic (Russian) alphabet Insert spoiler
Enter the code: *

Create an account

Partner Site

Advertising