» » Theeran (2018) Hindi - 1080p - WEB-HD - AVC - AAC-GM Exclusive

Theeran (2018) Hindi - 1080p - WEB-HD - AVC - AAC-GM Exclusive

Theeran (2018) Hindi - 1080p - WEB-HD - AVC - AAC-GM Exclusive





General
Format                      : MPEG-4
Format profile              : Base Media
Codec ID                    : isom (isom/iso2/avc1/mp41)
File size                   : 1.62 GiB
Duration                    : 2 h 20 min
Overall bit rate            : 1 651 kb/s
Writing application         : Lavf56.40.101

Video
ID                          : 1
Format                      : AVC
Format/Info                 : Advanced Video Codec
Format profile              : High@L4
Format settings, CABAC      : Yes
Format settings, RefFrames  : 3 frames
Codec ID                    : avc1
Codec ID/Info               : Advanced Video Coding
Duration                    : 2 h 20 min
Duration_FirstFrame         : -40 ms
Bit rate                    : 1 517 kb/s
Width                       : 1 920 pixels
Height                      : 1 080 pixels
Display aspect ratio        : 16:9
Frame rate mode             : Variable
Frame rate                  : 25.000 FPS
Minimum frame rate          : 25.000 FPS
Maximum frame rate          : 25.098 FPS
Color space                 : YUV
Chroma subsampling          : 4:2:0
Bit depth                   : 8 bits
Scan type                   : Progressive
Bits/(Pixel*Frame)          : 0.029
Stream size                 : 1.49 GiB (92%)
Color range                 : Limited
Color primaries             : BT.709
Transfer characteristics    : BT.709
Matrix coefficients         : BT.709

Audio
ID                          : 2
Format                      : AAC
Format/Info                 : Advanced Audio Codec
Format profile              : LC
Codec ID                    : 40
Duration                    : 2 h 20 min
Bit rate mode               : Constant
Bit rate                    : 128 kb/s
Channel(s)                  : 2 channels
Channel positions           : Front: L R
Sampling rate               : 44.1 kHz
Frame rate                  : 43.066 FPS (1024 SPF)
Compression mode            : Lossy
Stream size                 : 129 MiB (8%)
Default                     : Yes
Alternate group             : 1


Theeran (2018) Hindi - 1080p - WEB-HD - AVC - AAC-GM ExclusiveTheeran (2018) Hindi - 1080p - WEB-HD - AVC - AAC-GM ExclusiveTheeran (2018) Hindi - 1080p - WEB-HD - AVC - AAC-GM ExclusiveTheeran (2018) Hindi - 1080p - WEB-HD - AVC - AAC-GM ExclusiveTheeran (2018) Hindi - 1080p - WEB-HD - AVC - AAC-GM ExclusiveTheeran (2018) Hindi - 1080p - WEB-HD - AVC - AAC-GM ExclusiveTheeran (2018) Hindi - 1080p - WEB-HD - AVC - AAC-GM Exclusive

SINGLE DIRECT FAST LINKS
http://www.heroupload.us/0ee3850e6c8043aa/Theeran.2018.1080p.UntoucheD.WEB-HD.Hindi.AVC.AAC-GM.Exclusive.mp4


http://filefloater.com/Tv2/Theeran.2018.1080p.UntoucheD.WEB-HD.Hindi.AVC.AAC-GM.Exclusive.mp4





Tags: Theeran

Comments:

Dear visitor, you went to the site as unregistered user
We encourage you to create an account or enter the site under your name

Add comment

Name:*
E-Mail:*
Text:
Bold Italic Underline Strike | Align left Center Align right | Insert smilies Insert link URLInsert protected URL Select color | Add Hidden Text Insert Quote Convert selected text from selection to Cyrillic (Russian) alphabet Insert spoiler
Enter the code: *

Create an account

Advertising