» » Blackmail (2018) 1080p - WEB-DL - AVC - AAC 7.1-Team Jio Exclusive

Blackmail (2018) 1080p - WEB-DL - AVC - AAC 7.1-Team Jio Exclusive

Blackmail (2018) 1080p - WEB-DL - AVC - AAC 7.1-Team Jio Exclusive






General
Format                      : Matroska
Format version              : Version 4 / Version 2
File size                   : 14.1 GiB
Duration                    : 2 h 17 min
Overall bit rate            : 14.7 Mb/s
Encoded date                : UTC 2018-06-15 08:50:13
Writing application         : mkvmerge v23.0.0 ('The Bride Said No') 64-bit
Writing library             : libebml v1.3.6 + libmatroska v1.4.9

Video
ID                          : 1
Format                      : AVC
Format/Info                 : Advanced Video Codec
Format profile              : High@L4
Format settings, CABAC      : Yes
Format settings, RefFrames  : 4 frames
Codec ID                    : V_MPEG4/ISO/AVC
Duration                    : 2 h 17 min
Bit rate                    : 14.2 Mb/s
Nominal bit rate            : 15.0 Mb/s
Width                       : 1 920 pixels
Height                      : 1 080 pixels
Display aspect ratio        : 16:9
Frame rate mode             : Variable
Frame rate                  : 30.000 FPS
Color space                 : YUV
Chroma subsampling          : 4:2:0
Bit depth                   : 8 bits
Scan type                   : Progressive
Bits/(Pixel*Frame)          : 0.229
Stream size                 : 13.6 GiB (97%)
Writing library             : x264 core 148 r2762 90a61ec
Encoding settings           : cabac=1 / ref=1 / deblock=1:0:0 / analyse=0x3:0x113 / me=hex / subme=2 / psy=1 / psy_rd=1.00:0.00 / mixed_ref=0 / me_range=16 / chroma_me=1 / trellis=0 / 8x8dct=1 / cqm=0 / deadzone=21,11 / fast_pskip=1 / chroma_qp_offset=0 / threads=12 / lookahead_threads=4 / sliced_threads=0 / nr=0 / decimate=1 / interlaced=0 / bluray_compat=0 / constrained_intra=0 / bframes=3 / b_pyramid=2 / b_adapt=1 / b_bias=0 / direct=1 / weightb=1 / open_gop=0 / weightp=1 / keyint=250 / keyint_min=25 / scenecut=40 / intra_refresh=0 / rc_lookahead=10 / rc=cbr / mbtree=1 / bitrate=15000 / ratetol=1.0 / qcomp=0.60 / qpmin=0 / qpmax=69 / qpstep=4 / vbv_maxrate=15000 / vbv_bufsize=15000 / nal_hrd=none / filler=1 / ip_ratio=1.40 / aq=1:1.00
Default                     : Yes
Forced                      : No

Audio
ID                          : 2
Format                      : AAC
Format/Info                 : Advanced Audio Codec
Format profile              : LC
Codec ID                    : A_AAC
Duration                    : 2 h 17 min
Bit rate                    : 497 kb/s
Channel(s)                  : 7 channels
Channel(s)_Original         : 8 channels
Channel positions           : Front: L C R, Side: L R, Back: L R, LFE
Sampling rate               : 48.0 kHz
Frame rate                  : 46.875 FPS (1024 SPF)
Compression mode            : Lossy
Stream size                 : 487 MiB (3%)
Title                       : Track1
Default                     : Yes
Forced                      : No




Blackmail (2018) 1080p - WEB-DL - AVC - AAC 7.1-Team Jio ExclusiveBlackmail (2018) 1080p - WEB-DL - AVC - AAC 7.1-Team Jio ExclusiveBlackmail (2018) 1080p - WEB-DL - AVC - AAC 7.1-Team Jio ExclusiveBlackmail (2018) 1080p - WEB-DL - AVC - AAC 7.1-Team Jio ExclusiveBlackmail (2018) 1080p - WEB-DL - AVC - AAC 7.1-Team Jio ExclusiveBlackmail (2018) 1080p - WEB-DL - AVC - AAC 7.1-Team Jio ExclusiveBlackmail (2018) 1080p - WEB-DL - AVC - AAC 7.1-Team Jio Exclusive


SINGLE DIRECT FAST LINKS

http://www.heroupload.us/f8be3959011f1e84/Blackmail.2018.1080p.WEB-DL.AVC.AAC.7.1.Audio-Team.Jio.Exclusive.mkv


2GB LINKS


http://www.heroupload.us/1c34eac789ae62d1/Blackmail.2018.1080p.WEB-DL.AVC.AAC.7.1.Audio-Team.Jio.Exclusive.part1.rar
http://www.heroupload.us/68f1c12d2abecbd4/Blackmail.2018.1080p.WEB-DL.AVC.AAC.7.1.Audio-Team.Jio.Exclusive.part2.rar
http://www.heroupload.us/32251f22385b6c54/Blackmail.2018.1080p.WEB-DL.AVC.AAC.7.1.Audio-Team.Jio.Exclusive.part3.rar
http://www.heroupload.us/de0f2e8889a64c95/Blackmail.2018.1080p.WEB-DL.AVC.AAC.7.1.Audio-Team.Jio.Exclusive.part4.rar
http://www.heroupload.us/28d5fdfe220dcc80/Blackmail.2018.1080p.WEB-DL.AVC.AAC.7.1.Audio-Team.Jio.Exclusive.part5.rar
http://www.heroupload.us/2d2cf3ea6f0c3bec/Blackmail.2018.1080p.WEB-DL.AVC.AAC.7.1.Audio-Team.Jio.Exclusive.part6.rar
http://www.heroupload.us/e0a346d84882ff61/Blackmail.2018.1080p.WEB-DL.AVC.AAC.7.1.Audio-Team.Jio.Exclusive.part7.rar
http://www.heroupload.us/82922d1cc3f09085/Blackmail.2018.1080p.WEB-DL.AVC.AAC.7.1.Audio-Team.Jio.Exclusive.part8.rar


http://filefloater.com/Tqn/Blackmail.2018.1080p.WEB-DL.AVC.AAC.7.1.Audio-Team.Jio.Exclusive.part1.rar
http://filefloater.com/Tqo/Blackmail.2018.1080p.WEB-DL.AVC.AAC.7.1.Audio-Team.Jio.Exclusive.part2.rar
http://filefloater.com/Tqp/Blackmail.2018.1080p.WEB-DL.AVC.AAC.7.1.Audio-Team.Jio.Exclusive.part3.rar
http://filefloater.com/Tqq/Blackmail.2018.1080p.WEB-DL.AVC.AAC.7.1.Audio-Team.Jio.Exclusive.part4.rar
http://filefloater.com/Tqr/Blackmail.2018.1080p.WEB-DL.AVC.AAC.7.1.Audio-Team.Jio.Exclusive.part5.rar
http://filefloater.com/Tqs/Blackmail.2018.1080p.WEB-DL.AVC.AAC.7.1.Audio-Team.Jio.Exclusive.part6.rar
http://filefloater.com/Tqt/Blackmail.2018.1080p.WEB-DL.AVC.AAC.7.1.Audio-Team.Jio.Exclusive.part7.rar
http://filefloater.com/Tqu/Blackmail.2018.1080p.WEB-DL.AVC.AAC.7.1.Audio-Team.Jio.Exclusive.part8.rar



Tags: Blackmail

Comments:

Dear visitor, you went to the site as unregistered user
We encourage you to create an account or enter the site under your name

Add comment

Name:*
E-Mail:*
Text:
Bold Italic Underline Strike | Align left Center Align right | Insert smilies Insert link URLInsert protected URL Select color | Add Hidden Text Insert Quote Convert selected text from selection to Cyrillic (Russian) alphabet Insert spoiler
Enter the code: *

Create an account

Advertising