» » Pandigai (2017) UNCUT 720p HDRip x264 ESubs [Dual Audio][Hindi+Tamil] - MCR

Pandigai (2017) UNCUT 720p HDRip x264 ESubs [Dual Audio][Hindi+Tamil] - MCR

Pandigai (2017) UNCUT 720p HDRip x264 ESubs [Dual Audio][Hindi+Tamil] - MCR






General
Format : Matroska
Format version : Version 4 / Version 2
File size : 1.59 GiB
Duration : 2 h 10 min
Overall bit rate : 1 746 kb/s
Encoded date : UTC 2018-06-06 09:48:01
Writing application : mkvmerge v23.0.0 ('The Bride Said No') 64-bit
Writing library : libebml v1.3.6 + libmatroska v1.4.9

Video
ID : 1
Format : AVC
Format/Info : Advanced Video Codec
Format profile : High@L3.1
Format settings, CABAC : Yes
Format settings, ReFrames : 4 frames
Codec ID : V_MPEG4/ISO/AVC
Duration : 2 h 10 min
Bit rate : 1 424 kb/s
Width : 1 280 pixels
Height : 568 pixels
Display aspect ratio : 2.25:1
Frame rate mode : Constant
Frame rate : 24.000 FPS
Color space : YUV
Chroma subsampling : 4:2:0
Bit depth : 8 bits
Scan type : Progressive
Bits/(Pixel*Frame) : 0.082
Stream size : 1.30 GiB (82%)
Writing library : x264 core 148 r2744 b97ae06
Encoding settings : cabac=1 / ref=3 / deblock=1:0:0 / analyse=0x3:0x113 / me=hex / subme=7 / psy=1 / psy_rd=1.00:0.00 / mixed_ref=1 / me_range=16 / chroma_me=1 / trellis=1 / 8x8dct=1 / cqm=0 / deadzone=21,11 / fast_pskip=1 / chroma_qp_offset=-2 / threads=12 / lookahead_threads=2 / sliced_threads=0 / nr=0 / decimate=1 / interlaced=0 / bluray_compat=0 / constrained_intra=0 / bframes=3 / b_pyramid=2 / b_adapt=1 / b_bias=0 / direct=1 / weightb=1 / open_gop=0 / weightp=2 / keyint=240 / keyint_min=24 / scenecut=40 / intra_refresh=0 / rc_lookahead=40 / rc=2pass / mbtree=1 / bitrate=1424 / ratetol=1.0 / qcomp=0.60 / qpmin=0 / qpmax=69 / qpstep=4 / cplxblur=20.0 / qblur=0.5 / ip_ratio=1.40 / aq=1:1.00
Language : English
Default : Yes
Forced : Yes

Audio #1
ID : 2
Format : MPEG Audio
Format version : Version 1
Format profile : Layer 3
Mode : Joint stereo
Mode extension : MS Stereo
Codec ID : A_MPEG/L3
Codec ID/Hint : MP3
Duration : 2 h 10 min
Bit rate mode : Constant
Bit rate : 160 kb/s
Channel(s) : 2 channels
Sampling rate : 44.1 kHz
Frame rate : 38.281 FPS (1152 spf)
Compression mode : Lossy
Stream size : 149 MiB (9%)
Writing library : LAME3.98.2
Language : Hindi
Default : Yes
Forced : Yes

Audio #2
ID : 3
Format : AC-3
Format/Info : Audio Coding 3
Mode extension : CM (complete main)
Format settings, Endianness : Big
Codec ID : A_AC3
Duration : 2 h 10 min
Bit rate mode : Constant
Bit rate : 160 kb/s
Channel(s) : 6 channels
Channel positions : Front: L C R, Side: L R, LFE
Sampling rate : 44.1 kHz
Frame rate : 28.711 FPS (1536 spf)
Bit depth : 16 bits
Compression mode : Lossy
Stream size : 149 MiB (9%)
Language : English
Default : No
Forced : Yes



Pandigai (2017) UNCUT 720p HDRip x264 ESubs [Dual Audio][Hindi+Tamil] - MCRPandigai (2017) UNCUT 720p HDRip x264 ESubs [Dual Audio][Hindi+Tamil] - MCRPandigai (2017) UNCUT 720p HDRip x264 ESubs [Dual Audio][Hindi+Tamil] - MCRPandigai (2017) UNCUT 720p HDRip x264 ESubs [Dual Audio][Hindi+Tamil] - MCRPandigai (2017) UNCUT 720p HDRip x264 ESubs [Dual Audio][Hindi+Tamil] - MCRPandigai (2017) UNCUT 720p HDRip x264 ESubs [Dual Audio][Hindi+Tamil] - MCRPandigai (2017) UNCUT 720p HDRip x264 ESubs [Dual Audio][Hindi+Tamil] - MCRPandigai (2017) UNCUT 720p HDRip x264 ESubs [Dual Audio][Hindi+Tamil] - MCRPandigai (2017) UNCUT 720p HDRip x264 ESubs [Dual Audio][Hindi+Tamil] - MCR


SINGLE DIRECT FAST LINKS

http://www.heroupload.us/6fde09cade8a7d1b/Pandigai.2017.UNCUT.720p.HDRip.x264.ESubs.Dual.Audio.Hindi.Original+Tamil-MCR.mkv



http://filefloater.com/Tlm/Pandigai.2017.UNCUT.720p.HDRip.x264.ESubs.Dual.Audio.Hindi.Original+Tamil-MCR.mkv





Tags: Pandigai

Comments:

Dear visitor, you went to the site as unregistered user
We encourage you to create an account or enter the site under your name

Add comment

Name:*
E-Mail:*
Text:
Bold Italic Underline Strike | Align left Center Align right | Insert smilies Insert link URLInsert protected URL Select color | Add Hidden Text Insert Quote Convert selected text from selection to Cyrillic (Russian) alphabet Insert spoiler
Enter the code: *

Create an account

Advertising