» » Aiyaary (2018) 1080p WEB-DL x264 DD.5.1-iKA

Aiyaary (2018) 1080p WEB-DL x264 DD.5.1-iKA

Aiyaary (2018) 1080p WEB-DL x264 DD.5.1-iKA






Video
ID                                       : 1
Format                                   : AVC
Format/Info                              : Advanced Video Codec
Format profile                           : Main@L4
Format settings                          : CABAC / 3 Ref Frames
Format settings, CABAC                   : Yes
Format settings, RefFrames               : 3 frames
Format settings, GOP                     : M=3, N=48
Codec ID                                 : V_MPEG4/ISO/AVC
Duration                                 : 2 h 38 min
Bit rate mode                            : Variable
Bit rate                                 : 6 490 kb/s
Maximum bit rate                         : 9 735 kb/s
Width                                    : 1 920 pixels
Height                                   : 1 080 pixels
Display aspect ratio                     : 16:9
Frame rate mode                          : Constant
Frame rate                               : 23.976 (24000/1001) FPS
Color space                              : YUV
Chroma subsampling                       : 4:2:0
Bit depth                                : 8 bits
Scan type                                : Progressive
Bits/(Pixel*Frame)                       : 0.131
Stream size                              : 7.11 GiB (94%)
Writing library                          : x264 core 148 r2715 7e75228
Encoding settings                        : cabac=1 / ref=3 / deblock=1:0:0 / analyse=0x1:0x111 / me=umh / subme=10 / psy=1 / psy_rd=1.00:0.00 / mixed_ref=1 / me_range=24 / chroma_me=1 / trellis=2 / 8x8dct=0 / cqm=0 / deadzone=21,11 / fast_pskip=1 / chroma_qp_offset=-2 / threads=8 / lookahead_threads=1 / sliced_threads=0 / nr=0 / decimate=1 / interlaced=0 / bluray_compat=0 / stitchable=1 / constrained_intra=0 / bframes=2 / b_pyramid=0 / b_adapt=2 / b_bias=0 / direct=3 / weightb=1 / open_gop=0 / weightp=2 / keyint=48 / keyint_min=25 / scenecut=0 / intra_refresh=0 / rc_lookahead=48 / rc=2pass / mbtree=1 / bitrate=6490 / ratetol=1.0 / qcomp=0.50 / qpmin=6 / qpmax=51 / qpstep=4 / cplxblur=20.0 / qblur=0.5 / vbv_maxrate=9735 / vbv_bufsize=12980 / nal_hrd=vbr / filler=0 / ip_ratio=1.40 / aq=1:1.00
Default                                  : Yes
Forced                                   : No

Audio
ID                                       : 2
Format                                   : AC-3
Format/Info                              : Audio Coding 3
Codec ID                                 : A_AC3
Duration                                 : 2 h 38 min
Bit rate mode                            : Constant
Bit rate                                 : 384 kb/s
Channel(s)                               : 6 channels
Channel positions                        : Front: L C R, Side: L R, LFE
Sampling rate                            : 48.0 kHz
Frame rate                               : 31.250 FPS (1536 SPF)
Bit depth                                : 16 bits
Compression mode                         : Lossy
Stream size                              : 434 MiB (6%)
Language                                 : Hindi
Service kind                             : Complete Main
Default                                  : Yes
Forced                                   : No

Text
ID                                       : 3
Format                                   : UTF-8
Codec ID                                 : S_TEXT/UTF8
Codec ID/Info                            : UTF-8 Plain Text
Duration                                 : 2 h 29 min
Bit rate                                 : 46 b/s
Count of elements                        : 1657
Stream size                              : 51.3 KiB (0%)
Language                                 : English
Default                                  : No
Forced                                   : No

Aiyaary (2018) 1080p WEB-DL x264 DD.5.1-iKAAiyaary (2018) 1080p WEB-DL x264 DD.5.1-iKAAiyaary (2018) 1080p WEB-DL x264 DD.5.1-iKAAiyaary (2018) 1080p WEB-DL x264 DD.5.1-iKAAiyaary (2018) 1080p WEB-DL x264 DD.5.1-iKAAiyaary (2018) 1080p WEB-DL x264 DD.5.1-iKA


SINGLE DIRECT FAST LINKS

http://www.heroupload.us/d15651c1a39b659f/Aiyaary.2018.1080p.WEB-DL.x264-iKA.mkv


1GB LINKS

http://www.heroupload.us/11d5c5bdeb3d5349/Aiyaary.2018.1080p.WEB-DL.x264-iKA.part1.rar
http://www.heroupload.us/bf46c34ac7c7c16d/Aiyaary.2018.1080p.WEB-DL.x264-iKA.part2.rar
http://www.heroupload.us/dc17548c759c8eb9/Aiyaary.2018.1080p.WEB-DL.x264-iKA.part3.rar
http://www.heroupload.us/12a2953cf0e0f360/Aiyaary.2018.1080p.WEB-DL.x264-iKA.part4.rar
http://www.heroupload.us/9e86c08fa8422151/Aiyaary.2018.1080p.WEB-DL.x264-iKA.part5.rar
http://www.heroupload.us/040cb66011387cd2/Aiyaary.2018.1080p.WEB-DL.x264-iKA.part6.rar
http://www.heroupload.us/2dd93159c84fdb78/Aiyaary.2018.1080p.WEB-DL.x264-iKA.part7.rar
http://www.heroupload.us/c3a483ef3759bd1d/Aiyaary.2018.1080p.WEB-DL.x264-iKA.part8.rar



http://filefloater.com/Tfy/Aiyaary.2018.1080p.WEB-DL.x264-iKA.part1.rar
http://filefloater.com/Tfz/Aiyaary.2018.1080p.WEB-DL.x264-iKA.part2.rar
http://filefloater.com/1jgu/Aiyaary.2018.1080p.WEB-DL.x264-iKA.part3.rar
http://filefloater.com/1jgv/Aiyaary.2018.1080p.WEB-DL.x264-iKA.part4.rar
http://filefloater.com/1jgw/Aiyaary.2018.1080p.WEB-DL.x264-iKA.part5.rar
http://filefloater.com/1jgx/Aiyaary.2018.1080p.WEB-DL.x264-iKA.part6.rar
http://filefloater.com/1jgy/Aiyaary.2018.1080p.WEB-DL.x264-iKA.part7.rar
http://filefloater.com/1jgz/Aiyaary.2018.1080p.WEB-DL.x264-iKA.part8.rar



Tags: Aiyaary

Comments:

Dear visitor, you went to the site as unregistered user
We encourage you to create an account or enter the site under your name

Add comment

Name:*
E-Mail:*
Text:
Bold Italic Underline Strike | Align left Center Align right | Insert smilies Insert link URLInsert protected URL Select color | Add Hidden Text Insert Quote Convert selected text from selection to Cyrillic (Russian) alphabet Insert spoiler
Enter the code: *

Create an account

Advertising