» » Aiyaary (2018) Untouched - 720p - HDTV - AVC - AAC-DUS Exclusie

Aiyaary (2018) Untouched - 720p - HDTV - AVC - AAC-DUS Exclusie

Aiyaary (2018) Untouched - 720p - HDTV - AVC - AAC-DUS Exclusie





Format                                   : MPEG-4
Format profile                           : Base Media / Version 2
Codec ID                                 : mp42 (mp42)
File size                                : 3.46 GiB
Duration                                 : 3 h 8 min
Overall bit rate                         : 2 632 kb/s
Codirector                               : codirector
Production studio                        : studio
ContentType                              : Unknown Type
Encoded date                             : UTC 2018-05-05 14:04:21
Tagged date                              : UTC 2018-05-05 14:04:21

Video
ID                                       : 1
Format                                   : AVC
Format/Info                              : Advanced Video Codec
Format profile                           : Main@L4.1
Format settings                          : CABAC / 2 Ref Frames
Format settings, CABAC                   : Yes
Format settings, RefFrames               : 2 frames
Muxing mode                              : Container profile=Baseline@3.0
Codec ID                                 : avc1
Codec ID/Info                            : Advanced Video Coding
Duration                                 : 3 h 8 min
Bit rate                                 : 2 498 kb/s
Width                                    : 1 280 pixels
Height                                   : 720 pixels
Display aspect ratio                     : 16:9
Frame rate mode                          : Constant
Frame rate                               : 25.000 FPS
Color space                              : YUV
Chroma subsampling                       : 4:2:0
Bit depth                                : 8 bits
Scan type                                : Progressive
Bits/(Pixel*Frame)                       : 0.108
Stream size                              : 3.28 GiB (95%)
Language                                 : English

Audio
ID                                       : 2
Format                                   : AAC
Format/Info                              : Advanced Audio Codec
Format profile                           : LC
Codec ID                                 : mp4a-40-2
Duration                                 : 3 h 8 min
Bit rate mode                            : Constant
Bit rate                                 : 128 kb/s
Channel(s)                               : 2 channels
Channel positions                        : Front: L R
Sampling rate                            : 44.1 kHz
Frame rate                               : 43.066 FPS (1024 SPF)
Compression mode                         : Lossy
Stream size                              : 172 MiB (5%)
Title                                    : Stereo
Language                                 : English
Default                                  : Yes
Alternate group                          : 1



Aiyaary (2018) Untouched - 720p - HDTV - AVC - AAC-DUS ExclusieAiyaary (2018) Untouched - 720p - HDTV - AVC - AAC-DUS ExclusieAiyaary (2018) Untouched - 720p - HDTV - AVC - AAC-DUS ExclusieAiyaary (2018) Untouched - 720p - HDTV - AVC - AAC-DUS ExclusieAiyaary (2018) Untouched - 720p - HDTV - AVC - AAC-DUS ExclusieAiyaary (2018) Untouched - 720p - HDTV - AVC - AAC-DUS Exclusie

SINGLE DIRECT FAST LINKS
http://www.heroupload.us/2ec993099c563b1a/Aiyaary.2018.720p.HDTV.Untouched-DUS.mp4


http://filefloater.com/SW1/Aiyaary.2018.720p.HDTV.Untouched-DUS.mp4

1GB LINKS


http://www.heroupload.us/74a1cc157e5734c9/Aiyaary.2018.720p.HDTV.Untouched-DUS.part1.rar
http://www.heroupload.us/e8ca5af95f90d15a/Aiyaary.2018.720p.HDTV.Untouched-DUS.part2.rar
http://www.heroupload.us/86472a2ec240b1d9/Aiyaary.2018.720p.HDTV.Untouched-DUS.part3.rar
http://www.heroupload.us/76359167fc4bd131/Aiyaary.2018.720p.HDTV.Untouched-DUS.part4.rar



http://filefloater.com/SW2/Aiyaary.2018.720p.HDTV.Untouched-DUS.part1.rar
http://filefloater.com/SW3/Aiyaary.2018.720p.HDTV.Untouched-DUS.part2.rar
http://filefloater.com/SW4/Aiyaary.2018.720p.HDTV.Untouched-DUS.part3.rar
http://filefloater.com/SW5/Aiyaary.2018.720p.HDTV.Untouched-DUS.part4.rar







Tags: Aiyaary

Comments:

Dear visitor, you went to the site as unregistered user
We encourage you to create an account or enter the site under your name

Add comment

Name:*
E-Mail:*
Text:
Bold Italic Underline Strike | Align left Center Align right | Insert smilies Insert link URLInsert protected URL Select color | Add Hidden Text Insert Quote Convert selected text from selection to Cyrillic (Russian) alphabet Insert spoiler
Enter the code: *

Create an account

Advertising