» » Baaghi 2 (2018) 1080p - HDRip - x264 - DD5.1 - Ranvijay

Baaghi 2 (2018) 1080p - HDRip - x264 - DD5.1 - Ranvijay

Baaghi 2 (2018) 1080p - HDRip - x264 - DD5.1 - Ranvijay







Format                                   : Matroska
Format version                           : Version 2
File size                                : 2.89 GiB
Duration                                 : 2 h 23 min
Overall bit rate                         : 2 888 kb/s

Video
Duration                                 : 2 h 23 min
Bit rate                                 : 2 700 kb/s
Width                                    : 1 920 pixels
Height                                   : 808 pixels
Stream size                              : 2.61 GiB (90%)
Default                                  : Yes
Forced                                   : No

Audio
ID                                       : 2
Format                                   : AC-3
Format/Info                              : Audio Coding 3
Codec ID                                 : A_AC3
Duration                                 : 2 h 23 min
Bit rate mode                            : Constant
Bit rate                                 : 224 kb/s
Channel(s)                               : 6 channels
Channel positions                        : Front: L C R, Side: L R, LFE
Stream size                              : 229 MiB (8%)
Default                                  : Yes
Forced                                   : No





Baaghi 2 (2018) 1080p - HDRip - x264 - DD5.1 - Ranvijay
Baaghi 2 (2018) 1080p - HDRip - x264 - DD5.1 - Ranvijay
Baaghi 2 (2018) 1080p - HDRip - x264 - DD5.1 - Ranvijay
Baaghi 2 (2018) 1080p - HDRip - x264 - DD5.1 - Ranvijay
Baaghi 2 (2018) 1080p - HDRip - x264 - DD5.1 - Ranvijay
Baaghi 2 (2018) 1080p - HDRip - x264 - DD5.1 - Ranvijay
Baaghi 2 (2018) 1080p - HDRip - x264 - DD5.1 - Ranvijay
Baaghi 2 (2018) 1080p - HDRip - x264 - DD5.1 - Ranvijay


SINGLE DIRECT FAST LINKS
http://www.heroupload.us/278dc37e4fbdd3b0/Baaghi.2.2018.1080p.WEB-HD.x264.DD5.1-Ranvijay.mkv


http://filefloater.com/1iQz/Baaghi.2.2018.1080p.WEB-HD.x264.DD5.1-Ranvijay.mkv

700MB LINKS

http://www.heroupload.us/8583dfcb58b612fb/Baaghi.2.2018.1080p.WEB-HD.x264.DD5.1-Ranvijay.part1.rar
http://www.heroupload.us/6f2378cb20ce5b8b/Baaghi.2.2018.1080p.WEB-HD.x264.DD5.1-Ranvijay.part2.rar
http://www.heroupload.us/e35957997cdcb049/Baaghi.2.2018.1080p.WEB-HD.x264.DD5.1-Ranvijay.part3.rar
http://www.heroupload.us/34a2502b81e97d44/Baaghi.2.2018.1080p.WEB-HD.x264.DD5.1-Ranvijay.part4.rar
http://www.heroupload.us/8cb98a27c12e3281/Baaghi.2.2018.1080p.WEB-HD.x264.DD5.1-Ranvijay.part5.rar



http://filefloater.com/1iQA/Baaghi.2.2018.1080p.WEB-HD.x264.DD5.1-Ranvijay.part1.rar
http://filefloater.com/1iQB/Baaghi.2.2018.1080p.WEB-HD.x264.DD5.1-Ranvijay.part2.rar
http://filefloater.com/1iQC/Baaghi.2.2018.1080p.WEB-HD.x264.DD5.1-Ranvijay.part3.rar
http://filefloater.com/1iQD/Baaghi.2.2018.1080p.WEB-HD.x264.DD5.1-Ranvijay.part4.rar
http://filefloater.com/1iQE/Baaghi.2.2018.1080p.WEB-HD.x264.DD5.1-Ranvijay.part5.rar


Tags: Baaghi

Comments:

Dear visitor, you went to the site as unregistered user
We encourage you to create an account or enter the site under your name

Add comment

Name:*
E-Mail:*
Text:
Bold Italic Underline Strike | Align left Center Align right | Insert smilies Insert link URLInsert protected URL Select color | Add Hidden Text Insert Quote Convert selected text from selection to Cyrillic (Russian) alphabet Insert spoiler
Enter the code: *

Create an account

Advertising