» » Sanam Teri Kasam (2016) 1080p WebHD AVC AAC ESub-DTOne

Sanam Teri Kasam (2016) 1080p WebHD AVC AAC ESub-DTOne

Sanam Teri Kasam (2016) 1080p WebHD AVC AAC ESub-DTOne







Format                      : Matroska
Format version              : Version 4 / Version 2
File size                  : 6.46 GiB
Duration                    : 2 h 33 min
Overall bit rate            : 6 007 kb/s
Movie name                  : SanamTeriKasam(2016)1080pWebHD
Encoded date                : UTC 2016-10-24 02:19:49
Writing application        : mkvmerge v9.3.1 ('Mask Machine') 32bit
Writing library            : libebml v1.3.4 + libmatroska v1.4.5

Video
ID                          : 1
Format                      : AVC
Format/Info                : Advanced Video Codec
Format profile              : High@L4
Format settings            : CABAC / 4 Ref Frames
Format settings, CABAC      : Yes
Format settings, ReFrames  : 4 frames
Format settings, GOP        : M=4, N=30
Codec ID                    : V_MPEG4/ISO/AVC
Duration                    : 2 h 33 min
Bit rate                    : 5 873 kb/s
Width                      : 1 920 pixels
Height                      : 1 080 pixels
Display aspect ratio        : 16:9
Frame rate mode            : Constant
Frame rate                  : 24.000 FPS
Color space                : YUV
Chroma subsampling          : 4:2:0
Bit depth                  : 8 bits
Scan type                  : Progressive
Bits/(Pixel*Frame)          : 0.118
Stream size                : 6.25 GiB (97%)
Title                      : SanamTeriKasam(2016)1080pWebHD
Writing library            : x264 core 133 r2 a3ac64b
Encoding settings          : cabac=1 / ref=3 / deblock=1:0:0 /  analyse=0x3:0x113 / me=hex / subme=7 / psy=1 / psy_rd=1.00:0.00 /  mixed_ref=1 / me_range=16 / chroma_me=1 / trellis=1 / 8x8dct=1 / cqm=0 /  deadzone=21,11 / fast_pskip=1 / chroma_qp_offset=-2 / threads=12 /  lookahead_threads=2 / sliced_threads=0 / nr=0 / decimate=1 /  interlaced=0 / bluray_compat=0 / constrained_intra=0 / bframes=3 /  b_pyramid=2 / b_adapt=1 / b_bias=0 / direct=1 / weightb=1 / open_gop=0 /  weightp=2 / keyint=30 / keyint_min=3 / scenecut=40 / intra_refresh=0 /  rc_lookahead=30 / rc=abr / mbtree=1 / bitrate=5873 / ratetol=1.0 /  qcomp=0.60 / qpmin=0 / qpmax=69 / qpstep=4 / ip_ratio=1.40 / aq=1:1.00
Default                    : Yes
Forced                      : No

Audio
ID                          : 3
Format                      : AAC
Format/Info                : Advanced Audio Codec
Format profile              : LC
Codec ID                    : A_AAC-2
Duration                    : 2 h 33 min
Bit rate                    : 192 kb/s
Channel(s)                  : 2 channels
Channel positions          : Front: L R
Sampling rate              : 48.0 kHz
Frame rate                  : 46.875 FPS (1024 SPF)
Compression mode            : Lossy
Delay relative to video    : -43 ms
Stream size                : 214 MiB (3%)
Default                    : No
Forced                      : No

Subtitle:     : English




Sanam Teri Kasam (2016) 1080p WebHD AVC AAC ESub-DTOne Sanam Teri Kasam (2016) 1080p WebHD AVC AAC ESub-DTOne Sanam Teri Kasam (2016) 1080p WebHD AVC AAC ESub-DTOne Sanam Teri Kasam (2016) 1080p WebHD AVC AAC ESub-DTOne Sanam Teri Kasam (2016) 1080p WebHD AVC AAC ESub-DTOne


SINGLE DIRECT FAST LINKS

http://www.heroupload.us/4450bf9b2e56e711/Sanam.Teri.Kasam.2016.1080p.WebHD.AVC.AAC.ESub-DTOne.mkv


1GB LINKS

http://www.heroupload.us/490d2238bb1365c8/Sanam.Teri.Kasam.2016.1080p.WebHD.AVC.AAC.ESub-DTOne.part1.rar
http://www.heroupload.us/c3968d5b378a3363/Sanam.Teri.Kasam.2016.1080p.WebHD.AVC.AAC.ESub-DTOne.part2.rar
http://www.heroupload.us/4eb7367e3a74b579/Sanam.Teri.Kasam.2016.1080p.WebHD.AVC.AAC.ESub-DTOne.part3.rar
http://www.heroupload.us/34ca11847d7e6834/Sanam.Teri.Kasam.2016.1080p.WebHD.AVC.AAC.ESub-DTOne.part4.rar
http://www.heroupload.us/f262688743595f72/Sanam.Teri.Kasam.2016.1080p.WebHD.AVC.AAC.ESub-DTOne.part5.rar
http://www.heroupload.us/32b81dd6342de627/Sanam.Teri.Kasam.2016.1080p.WebHD.AVC.AAC.ESub-DTOne.part6.rar
http://www.heroupload.us/c3cdcaa83954665f/Sanam.Teri.Kasam.2016.1080p.WebHD.AVC.AAC.ESub-DTOne.part7.rar
http://www.heroupload.us/14e747f3a2b85e74/Sanam.Teri.Kasam.2016.1080p.WebHD.AVC.AAC.ESub-DTOne.srt



http://filefloater.com/SKt/Sanam.Teri.Kasam.2016.1080p.WebHD.AVC.AAC.ESub-DTOne.part1.rar
http://filefloater.com/SKv/Sanam.Teri.Kasam.2016.1080p.WebHD.AVC.AAC.ESub-DTOne.part2.rar
http://filefloater.com/SKw/Sanam.Teri.Kasam.2016.1080p.WebHD.AVC.AAC.ESub-DTOne.part3.rar
http://filefloater.com/SKx/Sanam.Teri.Kasam.2016.1080p.WebHD.AVC.AAC.ESub-DTOne.part4.rar
http://filefloater.com/SKy/Sanam.Teri.Kasam.2016.1080p.WebHD.AVC.AAC.ESub-DTOne.part5.rar
http://filefloater.com/SKz/Sanam.Teri.Kasam.2016.1080p.WebHD.AVC.AAC.ESub-DTOne.part6.rar
http://filefloater.com/1iLu/Sanam.Teri.Kasam.2016.1080p.WebHD.AVC.AAC.ESub-DTOne.part7.rar
http://filefloater.com/1iLv/Sanam.Teri.Kasam.2016.1080p.WebHD.AVC.AAC.ESub-DTOne.srt



Tags: Sanam

Comments:

Dear visitor, you went to the site as unregistered user
We encourage you to create an account or enter the site under your name

Add comment

Name:*
E-Mail:*
Text:
Bold Italic Underline Strike | Align left Center Align right | Insert smilies Insert link URLInsert protected URL Select color | Add Hidden Text Insert Quote Convert selected text from selection to Cyrillic (Russian) alphabet Insert spoiler
Enter the code: *

Create an account

Advertising