» » Behen Hogi Teri (2017) Untouched - 1080p - WEB-HD - AVC - AAC-DUS

Behen Hogi Teri (2017) Untouched - 1080p - WEB-HD - AVC - AAC-DUS

Behen Hogi Teri (2017) Untouched - 1080p - WEB-HD - AVC - AAC-DUS






Format                                   : MPEG-4
Format profile                           : Base Media
Codec ID                                 : isom (isom/iso2/avc1/mp41)
File size                                : 2.66 GiB
Duration                                 : 2 h 2 min
Overall bit rate                         : 3 105 kb/s
Writing application                      : Lavf56.40.101

Video
ID                                       : 1
Format                                   : AVC
Format/Info                              : Advanced Video Codec
Format profile                           : High@L3.1
Format settings                          : CABAC / 4 Ref Frames
Format settings, CABAC                   : Yes
Format settings, RefFrames               : 4 frames
Codec ID                                 : avc1
Codec ID/Info                            : Advanced Video Coding
Duration                                 : 2 h 2 min
Bit rate                                 : 3 000 kb/s
Width                                    : 1 920 pixels
Height                                   : 1 080 pixels
Display aspect ratio                     : 16:9
Frame rate mode                          : Constant
Frame rate                               : 25.000 FPS
Color space                              : YUV
Chroma subsampling                       : 4:2:0
Bit depth                                : 8 bits
Scan type                                : Progressive
Bits/(Pixel*Frame)                       : 0.058
Stream size                              : 2.60 GiB (98%)
Writing library                          : x264 core 148 r2795 aaa9aa8

Audio
ID                                       : 2
Format                                   : AAC
Format/Info                              : Advanced Audio Codec
Format profile                           : LC
Codec ID                                 : mp4a-40-2
Duration                                 : 2 h 2 min
Duration_FirstFrame                      : 59 ms
Bit rate mode                            : Constant
Bit rate                                 : 64.4 kb/s
Channel(s)                               : 2 channels
Channel positions                        : Front: L R
Sampling rate                            : 48.0 kHz
Frame rate                               : 46.875 FPS (1024 SPF)
Compression mode                         : Lossy
Stream size                              : 56.6 MiB (2%)
Default                                  : Yes
Alternate group                          : 1



Behen Hogi Teri (2017) Untouched - 1080p - WEB-HD - AVC - AAC-DUSBehen Hogi Teri (2017) Untouched - 1080p - WEB-HD - AVC - AAC-DUSBehen Hogi Teri (2017) Untouched - 1080p - WEB-HD - AVC - AAC-DUSBehen Hogi Teri (2017) Untouched - 1080p - WEB-HD - AVC - AAC-DUSBehen Hogi Teri (2017) Untouched - 1080p - WEB-HD - AVC - AAC-DUS


SINGLE DIRECT FAST LINKS
http://www.heroupload.us/c973cc127e060bf9/Behen.Hogi.Teri.2017.1080p.WEBHD.Untouched-DUS.mp4


http://filefloater.com/56z/Behen.Hogi.Teri.2017.1080p.WEBHD.Untouched-DUS.mp4

700MB LINKS

http://www.heroupload.us/f8a12d9b47790c9b/Behen.Hogi.Teri.2017.1080p.WEBHD.Untouched-DUS.part1.rar
http://www.heroupload.us/619023695c07e29a/Behen.Hogi.Teri.2017.1080p.WEBHD.Untouched-DUS.part2.rar
http://www.heroupload.us/dd7373c6961f378a/Behen.Hogi.Teri.2017.1080p.WEBHD.Untouched-DUS.part3.rar
http://www.heroupload.us/264adffce7f20676/Behen.Hogi.Teri.2017.1080p.WEBHD.Untouched-DUS.part4.rar



http://filefloater.com/aja/Behen.Hogi.Teri.2017.1080p.WEBHD.Untouched-DUS.part1.rar
http://filefloater.com/ajb/Behen.Hogi.Teri.2017.1080p.WEBHD.Untouched-DUS.part2.rar
http://filefloater.com/ajc/Behen.Hogi.Teri.2017.1080p.WEBHD.Untouched-DUS.part3.rar
http://filefloater.com/ajd/Behen.Hogi.Teri.2017.1080p.WEBHD.Untouched-DUS.part4.rar






Tags: Behen

Comments:

Dear visitor, you went to the site as unregistered user
We encourage you to create an account or enter the site under your name

Add comment

Name:*
E-Mail:*
Text:
Bold Italic Underline Strike | Align left Center Align right | Insert smilies Insert link URLInsert protected URL Select color | Add Hidden Text Insert Quote Convert selected text from selection to Cyrillic (Russian) alphabet Insert spoiler
Enter the code: *

Create an account

Advertising