» » Qarib Qarib Singlle (2017) v2 Untouched - 1080p - WEB-HD - AVC - AAC-DUS

Qarib Qarib Singlle (2017) v2 Untouched - 1080p - WEB-HD - AVC - AAC-DUS

Qarib Qarib Singlle (2017) v2 Untouched - 1080p - WEB-HD - AVC - AAC-DUS





Format                                   : MPEG-4
Format profile                           : Base Media
Codec ID                                 : isom (isom/iso2/avc1/mp41)
File size                                : 2.58 GiB
Duration                                 : 2 h 0 min
Overall bit rate                         : 3 065 kb/s
Writing application                      : Lavf56.40.101

Video
ID                                       : 1
Format                                   : AVC
Format/Info                              : Advanced Video Codec
Format profile                           : High@L4
Format settings                          : CABAC / 4 Ref Frames
Format settings, CABAC                   : Yes
Format settings, RefFrames               : 4 frames
Codec ID                                 : avc1
Codec ID/Info                            : Advanced Video Coding
Duration                                 : 2 h 0 min
Bit rate                                 : 3 000 kb/s
Width                                    : 1 920 pixels
Height                                   : 1 080 pixels
Display aspect ratio                     : 16:9
Frame rate mode                          : Constant
Frame rate                               : 25.000 FPS
Color space                              : YUV
Chroma subsampling                       : 4:2:0
Bit depth                                : 8 bits
Scan type                                : Progressive
Bits/(Pixel*Frame)                       : 0.058
Stream size                              : 2.52 GiB (98%)
Writing library                          : x264 core 148 r2795 aaa9aa8

Audio
ID                                       : 2
Format                                   : AAC
Format/Info                              : Advanced Audio Codec
Format profile                           : LC
Codec ID                                 : mp4a-40-2
Duration                                 : 2 h 0 min
Bit rate mode                            : Constant
Bit rate                                 : 63.2 kb/s
Channel(s)                               : 2 channels
Channel positions                        : Front: L R
Sampling rate                            : 48.0 kHz
Frame rate                               : 46.875 FPS (1024 SPF)
Compression mode                         : Lossy
Stream size                              : 54.4 MiB (2%)
Default                                  : Yes
Alternate group                          : 1



Qarib Qarib Singlle (2017) v2 Untouched - 1080p - WEB-HD - AVC - AAC-DUSQarib Qarib Singlle (2017) v2 Untouched - 1080p - WEB-HD - AVC - AAC-DUSQarib Qarib Singlle (2017) v2 Untouched - 1080p - WEB-HD - AVC - AAC-DUSQarib Qarib Singlle (2017) v2 Untouched - 1080p - WEB-HD - AVC - AAC-DUSQarib Qarib Singlle (2017) v2 Untouched - 1080p - WEB-HD - AVC - AAC-DUS


SINGLE DIRECT FAST LINKS
http://www.heroupload.us/868bf391bcc02115/Qarib.Qarib.Singlle.2017.1080p.WEBHD.Untouched-DUS.mp4


http://filefloater.com/573/Qarib.Qarib.Singlle.2017.1080p.WEBHD.Untouched-DUS.mp4

700MB LINKS

http://www.heroupload.us/a436b547e866f337/Qarib.Qarib.Singlle.2017.1080p.WEBHD.Untouched-DUS.part1.rar
http://www.heroupload.us/b61bc573dda45527/Qarib.Qarib.Singlle.2017.1080p.WEBHD.Untouched-DUS.part2.rar
http://www.heroupload.us/5c6c1b97c12fe167/Qarib.Qarib.Singlle.2017.1080p.WEBHD.Untouched-DUS.part3.rar
http://www.heroupload.us/94bf8ae57dfedf6d/Qarib.Qarib.Singlle.2017.1080p.WEBHD.Untouched-DUS.part4.rar



http://filefloater.com/574/Qarib.Qarib.Singlle.2017.1080p.WEBHD.Untouched-DUS.part1.rar
http://filefloater.com/575/Qarib.Qarib.Singlle.2017.1080p.WEBHD.Untouched-DUS.part2.rar
http://filefloater.com/576/Qarib.Qarib.Singlle.2017.1080p.WEBHD.Untouched-DUS.part3.rar
http://filefloater.com/577/Qarib.Qarib.Singlle.2017.1080p.WEBHD.Untouched-DUS.part4.rar



Tags: Qarib

Comments:

Dear visitor, you went to the site as unregistered user
We encourage you to create an account or enter the site under your name

Add comment

Name:*
E-Mail:*
Text:
Bold Italic Underline Strike | Align left Center Align right | Insert smilies Insert link URLInsert protected URL Select color | Add Hidden Text Insert Quote Convert selected text from selection to Cyrillic (Russian) alphabet Insert spoiler
Enter the code: *

Create an account

Advertising