» » Zubaan (2016) Hindi - 720p - WEB-HD - AAC 2.0 - x264-Exclusive

Zubaan (2016) Hindi - 720p - WEB-HD - AAC 2.0 - x264-Exclusive

Zubaan (2016) Hindi - 720p - WEB-HD - AAC 2.0 - x264-Exclusive






General
Format                                   : Matroska
Format version                           : Version 4 / Version 2
File size                                : 902 MiB
Duration                                 : 1 h 51 min
Overall bit rate                         : 1 131 kb/s

Video
ID                                       : 2
Format                                   : AVC
Format/Info                              : Advanced Video Codec
Format profile                           : High@L4.1
Format settings                          : CABAC / 4 Ref Frames
Format settings, CABAC                   : Yes
Format settings, RefFrames               : 4 frames
Codec ID                                 : V_MPEG4/ISO/AVC
Duration                                 : 1 h 51 min
Bit rate                                 : 1 000 kb/s
Width                                    : 1 280 pixels
Height                                   : 548 pixels
Display aspect ratio                     : 2.35:1
Frame rate mode                          : Constant
Frame rate                               : 25.000 FPS
Color space                              : YUV
Chroma subsampling                       : 4:2:0
Bit depth                                : 8 bits
Scan type                                : Progressive
Bits/(Pixel*Frame)                       : 0.057
Stream size                              : 799 MiB (88%)
Writing library                          : x264 core 148 r2708 86b7198
Default                                  : Yes
Forced                                   : No

Audio
ID                                       : 1
Format                                   : AAC
Format/Info                              : Advanced Audio Codec
Format profile                           : LC
Codec ID                                 : A_AAC-2
Duration                                 : 1 h 51 min
Bit rate                                 : 128 kb/s
Channel(s)                               : 2 channels
Channel positions                        : Front: L R
Sampling rate                            : 44.1 kHz
Frame rate                               : 43.066 FPS (1024 SPF)
Compression mode                         : Lossy
Stream size                              : 102 MiB (11%)
Default                                  : Yes
Forced                                   : No



Zubaan (2016) Hindi - 720p - WEB-HD - AAC 2.0 - x264-ExclusiveZubaan (2016) Hindi - 720p - WEB-HD - AAC 2.0 - x264-ExclusiveZubaan (2016) Hindi - 720p - WEB-HD - AAC 2.0 - x264-ExclusiveZubaan (2016) Hindi - 720p - WEB-HD - AAC 2.0 - x264-ExclusiveZubaan (2016) Hindi - 720p - WEB-HD - AAC 2.0 - x264-ExclusiveZubaan (2016) Hindi - 720p - WEB-HD - AAC 2.0 - x264-Exclusive

SINGLE DIRECT FAST LINKS


http://www.heroupload.us/35c670417b8a195d/Zubaan.2016.Hindi.720p.WEB-HD.AAC.2.0.x264-Exclusive.mkv



http://filefloater.com/7pp/Zubaan.2016.Hindi.720p.WEB-HD.AAC.2.0.x264-Exclusive.mkv





Tags: Zubaan

Comments:

Dear visitor, you went to the site as unregistered user
We encourage you to create an account or enter the site under your name

Add comment

Name:*
E-Mail:*
Text:
Bold Italic Underline Strike | Align left Center Align right | Insert smilies Insert link URLInsert protected URL Select color | Add Hidden Text Insert Quote Convert selected text from selection to Cyrillic (Russian) alphabet Insert spoiler
Enter the code: *

Create an account

Advertising