» » Chatur Singh Two Star (2011) HDRip x264 ESubs [Multi Audio][Hindi+Tamil+Telugu+Malaya...

Chatur Singh Two Star (2011) HDRip x264 ESubs [Multi Audio][Hindi+Tamil+Telugu+Malaya...

Chatur Singh Two Star (2011) HDRip x264 ESubs [Multi Audio][Hindi+Tamil+Telugu+Malaya...






General
Format                      : Matroska
Format version              : Version 4 / Version 2
File size                   : 858 MiB
Duration                    : 1 h 50 min
Overall bit rate            : 1 090 kb/s
Encoded date                : UTC 2018-03-12 11:19:40
Writing application         : mkvmerge v7.8.0 ('River Man') 64bit built on Mar 27 2015 16:31:37
Writing library             : libebml v1.3.1 + libmatroska v1.4.2

Video
ID                          : 1
Format                      : AVC
Format/Info                 : Advanced Video Codec
Format profile              : Main@L3
Format settings, CABAC      : Yes
Format settings, RefFrames  : 3 frames
Codec ID                    : V_MPEG4/ISO/AVC
Duration                    : 1 h 50 min
Bit rate                    : 784 kb/s
Width                       : 854 pixels
Height                      : 480 pixels
Display aspect ratio        : 16:9
Frame rate mode             : Constant
Frame rate                  : 25.000 FPS
Color space                 : YUV
Chroma subsampling          : 4:2:0
Bit depth                   : 8 bits
Scan type                   : Progressive
Bits/(Pixel*Frame)          : 0.076
Stream size                 : 617 MiB (72%)
Default                     : Yes
Forced                      : No

Audio #1
ID                          : 2
Format                      : MPEG Audio
Format version              : Version 2
Format profile              : Layer 3
Mode                        : Joint stereo
Mode extension              : Intensity Stereo + MS Stereo
Codec ID                    : A_MPEG/L3
Codec ID/Hint               : MP3
Duration                    : 1 h 50 min
Bit rate mode               : Constant
Bit rate                    : 80.0 kb/s
Channel(s)                  : 2 channels
Sampling rate               : 22.05 kHz
Frame rate                  : 38.281 FPS (576 SPF)
Compression mode            : Lossy
Stream size                 : 62.9 MiB (7%)
Language                    : Tamil
Default                     : Yes
Forced                      : Yes

Audio #2
ID                          : 3
Format                      : MPEG Audio
Format version              : Version 2
Format profile              : Layer 3
Mode                        : Joint stereo
Mode extension              : Intensity Stereo + MS Stereo
Codec ID                    : A_MPEG/L3
Codec ID/Hint               : MP3
Duration                    : 1 h 50 min
Bit rate mode               : Constant
Bit rate                    : 80.0 kb/s
Channel(s)                  : 2 channels
Sampling rate               : 22.05 kHz
Frame rate                  : 38.281 FPS (576 SPF)
Compression mode            : Lossy
Stream size                 : 62.9 MiB (7%)
Language                    : Telugu
Default                     : No
Forced                      : No

Audio #3
ID                          : 4
Format                      : MPEG Audio
Format version              : Version 2
Format profile              : Layer 3
Mode                        : Joint stereo
Mode extension              : Intensity Stereo + MS Stereo
Codec ID                    : A_MPEG/L3
Codec ID/Hint               : MP3
Duration                    : 1 h 50 min
Bit rate mode               : Constant
Bit rate                    : 80.0 kb/s
Channel(s)                  : 2 channels
Sampling rate               : 22.05 kHz
Frame rate                  : 38.281 FPS (576 SPF)
Compression mode            : Lossy
Stream size                 : 62.9 MiB (7%)
Language                    : Malayalam
Default                     : No
Forced                      : No

Audio #4
ID                          : 5
Format                      : MPEG Audio
Format version              : Version 1
Format profile              : Layer 3
Mode                        : Joint stereo
Mode extension              : MS Stereo
Codec ID                    : A_MPEG/L3
Codec ID/Hint               : MP3
Duration                    : 1 h 50 min
Bit rate mode               : Constant
Bit rate                    : 64.0 kb/s
Channel(s)                  : 2 channels
Sampling rate               : 44.1 kHz
Frame rate                  : 38.281 FPS (1152 SPF)
Compression mode            : Lossy
Stream size                 : 50.4 MiB (6%)
Language                    : Hindi
Default                     : No
Forced                      : No




Chatur Singh Two Star (2011) HDRip x264 ESubs [Multi Audio][Hindi+Tamil+Telugu+Malaya...Chatur Singh Two Star (2011) HDRip x264 ESubs [Multi Audio][Hindi+Tamil+Telugu+Malaya...Chatur Singh Two Star (2011) HDRip x264 ESubs [Multi Audio][Hindi+Tamil+Telugu+Malaya...Chatur Singh Two Star (2011) HDRip x264 ESubs [Multi Audio][Hindi+Tamil+Telugu+Malaya...

SINGLE DIRECT FAST LINKS

http://www.heroupload.us/ba9c2c95826a5dfb/Chatur.Singh.Two.Star.2011.HDRip.Tamil+Telugu+Malayalam+Hindi.x264-Exclusive.mkv



http://filefloater.com/7p8/Chatur.Singh.Two.Star.2011.HDRip.Tamil+Telugu+Malayalam+Hindi.x264-Exclusive.mkv



Tags: Chatur

Comments:

Dear visitor, you went to the site as unregistered user
We encourage you to create an account or enter the site under your name

Add comment

Name:*
E-Mail:*
Text:
Bold Italic Underline Strike | Align left Center Align right | Insert smilies Insert link URLInsert protected URL Select color | Add Hidden Text Insert Quote Convert selected text from selection to Cyrillic (Russian) alphabet Insert spoiler
Enter the code: *

Create an account

Advertising