» » Fukrey Returns (2017) 720p - HDTVRip - AVC - AAC-DUS Exclsuive

Fukrey Returns (2017) 720p - HDTVRip - AVC - AAC-DUS Exclsuive

Fukrey Returns (2017) 720p - HDTVRip - AVC - AAC-DUS Exclsuive





General
Format                                   : MPEG-4
Format profile                           : Base Media
Codec ID                                 : isom (isom/iso2/avc1/mp41)
File size                                : 1.66 GiB
Duration                                 : 2 h 15 min
Overall bit rate mode                    : Variable
Overall bit rate                         : 1 748 kb/s
Writing application                      : Lavf57.82.101

Video
ID                                       : 1
Format                                   : AVC
Format/Info                              : Advanced Video Codec
Format profile                           : Main@L3.1
Format settings                          : 1 Ref Frames
Format settings, CABAC                   : No
Format settings, RefFrames               : 1 frame
Format settings, GOP                     : M=1, N=60
Codec ID                                 : avc1
Codec ID/Info                            : Advanced Video Coding
Duration                                 : 2 h 15 min
Bit rate                                 : 1 680 kb/s
Width                                    : 1 280 pixels
Height                                   : 720 pixels
Display aspect ratio                     : 16:9
Frame rate mode                          : Variable
Frame rate                               : 25.000 FPS
Minimum frame rate                       : 24.691 FPS
Maximum frame rate                       : 25.316 FPS
Color space                              : YUV
Chroma subsampling                       : 4:2:0
Bit depth                                : 8 bits
Scan type                                : Progressive
Bits/(Pixel*Frame)                       : 0.073
Stream size                              : 1.59 GiB (96%)

Audio
ID                                       : 2
Format                                   : AAC
Format/Info                              : Advanced Audio Codec
Format profile                           : LC
Codec ID                                 : mp4a-40-2
Duration                                 : 2 h 15 min
Bit rate mode                            : Variable
Bit rate                                 : 64.0 kb/s
Maximum bit rate                         : 66.8 kb/s
Channel(s)                               : 2 channels
Channel positions                        : Front: L R
Sampling rate                            : 48.0 kHz
Frame rate                               : 46.875 FPS (1024 SPF)
Compression mode                         : Lossy
Stream size                              : 62.2 MiB (4%)
Default                                  : Yes
Alternate group                          : 1


Fukrey Returns (2017) 720p - HDTVRip - AVC - AAC-DUS ExclsuiveFukrey Returns (2017) 720p - HDTVRip - AVC - AAC-DUS ExclsuiveFukrey Returns (2017) 720p - HDTVRip - AVC - AAC-DUS ExclsuiveFukrey Returns (2017) 720p - HDTVRip - AVC - AAC-DUS ExclsuiveFukrey Returns (2017) 720p - HDTVRip - AVC - AAC-DUS Exclsuive


SINGLE DIRECT FAST LINKS
http://www.heroupload.us/14d25ef8c04aa11e/Fukrey.Returns.2017.720p.HDTVRip-DUS.mp4


http://filefloater.com/7mt/Fukrey.Returns.2017.720p.HDTVRip-DUS.mp4





Tags: Fukrey

Comments:

Dear visitor, you went to the site as unregistered user
We encourage you to create an account or enter the site under your name

Add comment

Name:*
E-Mail:*
Text:
Bold Italic Underline Strike | Align left Center Align right | Insert smilies Insert link URLInsert protected URL Select color | Add Hidden Text Insert Quote Convert selected text from selection to Cyrillic (Russian) alphabet Insert spoiler
Enter the code: *

Create an account

Advertising