» » All Azhagu Raja (2018) Hindi - 1080p - WEB-HD - AVC - AAC-GM Exclusive

All Azhagu Raja (2018) Hindi - 1080p - WEB-HD - AVC - AAC-GM Exclusive

All Azhagu Raja (2018) Hindi - 1080p - WEB-HD - AVC - AAC-GM Exclusive





General
Format                      : MPEG-4
Format profile              : Base Media
Codec ID                    : isom (isom/iso2/avc1/mp41)
File size                   : 1.56 GiB
Duration                    : 2 h 18 min
Overall bit rate mode       : Variable
Overall bit rate            : 1 611 kb/s
Encoded date                : UTC 2018-02-26 22:06:54
Tagged date                 : UTC 2018-02-26 22:06:54

Video
ID                          : 1
Format                      : AVC
Format/Info                 : Advanced Video Codec
Format profile              : High@L4
Format settings, CABAC      : Yes
Format settings, RefFrames  : 3 frames
Codec ID                    : avc1
Codec ID/Info               : Advanced Video Coding
Duration                    : 2 h 18 min
Bit rate                    : 1 482 kb/s
Width                       : 1 920 pixels
Height                      : 1 080 pixels
Display aspect ratio        : 16:9
Frame rate mode             : Constant
Frame rate                  : 25.000 FPS
Color space                 : YUV
Chroma subsampling          : 4:2:0
Bit depth                   : 8 bits
Scan type                   : Progressive
Bits/(Pixel*Frame)          : 0.029
Stream size                 : 1.43 GiB (92%)
Encoded date                : UTC 2018-02-26 22:06:54
Tagged date                 : UTC 2018-02-26 22:06:54
Color range                 : Limited
Color primaries             : BT.709
Transfer characteristics    : BT.709
Matrix coefficients         : BT.709

Audio
ID                          : 2
Format                      : AAC
Format/Info                 : Advanced Audio Codec
Format profile              : LC
Codec ID                    : 40
Duration                    : 2 h 18 min
Bit rate mode               : Variable
Bit rate                    : 126 kb/s
Channel(s)                  : 2 channels
Channel positions           : Front: L R
Sampling rate               : 44.1 kHz
Frame rate                  : 43.066 FPS (1024 SPF)
Compression mode            : Lossy
Stream size                 : 124 MiB (8%)
Default                     : Yes
Alternate group             : 1
Encoded date                : UTC 2018-02-26 22:02:03
Tagged date                 : UTC 2018-02-26 22:02:03



All Azhagu Raja (2018) Hindi - 1080p - WEB-HD - AVC - AAC-GM Exclusive

SINGLE DIRECT FAST LINKS

https://www.heroupload.com/012d97dd5fb635d7/Hero.No.Zero.2-All.In.All.Azhagu.Raja.2018.Hindi.1080p.WEB-HD.AVC.AAC-GM.MP4



http://filefloater.com/7d7/Hero.No.Zero.2-All.In.All.Azhagu.Raja.2018.Hindi.1080p.WEB-HD.AVC.AAC-GM.MP4


Tags: All

Comments:

Dear visitor, you went to the site as unregistered user
We encourage you to create an account or enter the site under your name

Add comment

Name:*
E-Mail:*
Text:
Bold Italic Underline Strike | Align left Center Align right | Insert smilies Insert link URLInsert protected URL Select color | Add Hidden Text Insert Quote Convert selected text from selection to Cyrillic (Russian) alphabet Insert spoiler
Enter the code: *

Create an account

Advertising