» » Rocket Raja - Thikka (2016) 720p - HDRip - x264 - Esubs [Dual Audio][Hindi+Telugu]

Rocket Raja - Thikka (2016) 720p - HDRip - x264 - Esubs [Dual Audio][Hindi+Telugu]

Rocket Raja - Thikka (2016) 720p - HDRip - x264 - Esubs [Dual Audio][Hindi+Telugu]





General
Format                      : Matroska
Format version              : Version 4 / Version 2
File size                   : 1.05 GiB
Duration                    : 1 h 59 min
Overall bit rate mode       : Variable
Overall bit rate            : 1 259 kb/s
Encoded date                : UTC 2018-02-13 05:11:23
Writing application         : mkvmerge v7.1.0 ('Good Love') 32bit built on Jul 27 2014 12:59:18
Writing library             : libebml v1.3.0 + libmatroska v1.4.1

Video
ID                          : 1
Format                      : AVC
Format/Info                 : Advanced Video Codec
Format profile              : Main@L3.1
Format settings, CABAC      : Yes
Format settings, RefFrames  : 3 frames
Codec ID                    : V_MPEG4/ISO/AVC
Duration                    : 1 h 59 min
Bit rate                    : 1 037 kb/s
Width                       : 1 280 pixels
Height                      : 720 pixels
Display aspect ratio        : 16:9
Frame rate mode             : Constant
Frame rate                  : 25.000 FPS
Color space                 : YUV
Chroma subsampling          : 4:2:0
Bit depth                   : 8 bits
Scan type                   : Progressive
Bits/(Pixel*Frame)          : 0.045
Stream size                 : 885 MiB (82%)
Language                    : Hindi
Default                     : Yes
Forced                      : No
Color range                 : Limited
Color primaries             : BT.709
Transfer characteristics    : BT.709
Matrix coefficients         : BT.709

Audio #1
ID                          : 2
Format                      : MPEG Audio
Format version              : Version 1
Format profile              : Layer 3
Mode                        : Joint stereo
Mode extension              : MS Stereo
Codec ID                    : A_MPEG/L3
Codec ID/Hint               : MP3
Duration                    : 1 h 59 min
Bit rate mode               : Variable
Bit rate                    : 96.0 kb/s
Channel(s)                  : 2 channels
Sampling rate               : 44.1 kHz
Frame rate                  : 38.281 FPS (1152 SPF)
Compression mode            : Lossy
Stream size                 : 79.9 MiB (7%)
Writing library             : LAME3.99r
Encoding settings           : -m j -V 4 -q 3 -lowpass 15.1 --abr 96
Language                    : Telugu
Default                     : Yes
Forced                      : No

Audio #2
ID                          : 3
Format                      : AAC
Format/Info                 : Advanced Audio Codec
Format profile              : LC
Codec ID                    : A_AAC
Duration                    : 1 h 59 min
Bit rate                    : 126 kb/s
Channel(s)                  : 2 channels
Channel positions           : Front: L R
Sampling rate               : 44.1 kHz
Frame rate                  : 43.066 FPS (1024 SPF)
Compression mode            : Lossy
Stream size                 : 107 MiB (10%)
Language                    : Hindi
Default                     : No
Forced                      : No

Text
ID                          : 4
Format                      : UTF-8
Codec ID                    : S_TEXT/UTF8
Codec ID/Info               : UTF-8 Plain Text
Duration                    : 1 h 58 min
Bit rate                    : 93 b/s
Count of elements           : 2156
Stream size                 : 81.3 KiB (0%)
Language                    : English
Default                     : Yes
Forced                      : No




Rocket Raja - Thikka (2016) 720p - HDRip - x264 - Esubs [Dual Audio][Hindi+Telugu]Rocket Raja - Thikka (2016) 720p - HDRip - x264 - Esubs [Dual Audio][Hindi+Telugu]Rocket Raja - Thikka (2016) 720p - HDRip - x264 - Esubs [Dual Audio][Hindi+Telugu]Rocket Raja - Thikka (2016) 720p - HDRip - x264 - Esubs [Dual Audio][Hindi+Telugu]Rocket Raja - Thikka (2016) 720p - HDRip - x264 - Esubs [Dual Audio][Hindi+Telugu]Rocket Raja - Thikka (2016) 720p - HDRip - x264 - Esubs [Dual Audio][Hindi+Telugu]

Note:-

Hindi Audio Original
Telugu Audio Cam Clean

SINGLE DIRECT FAST LINKS

https://www.heroupload.com/6a06a10f13676505/Rocket.Raja-Thikka.2016.WEB-HD.720p.x264.Telugu+Hindi.ESub-TMV.mkv



http://filefloater.com/74T/Rocket.Raja-Thikka.2016.WEB-HD.720p.x264.Telugu+Hindi.ESub-TMV.mkv


Tags: Rocket

Comments:

Dear visitor, you went to the site as unregistered user
We encourage you to create an account or enter the site under your name

Add comment

Name:*
E-Mail:*
Text:
Bold Italic Underline Strike | Align left Center Align right | Insert smilies Insert link URLInsert protected URL Select color | Add Hidden Text Insert Quote Convert selected text from selection to Cyrillic (Russian) alphabet Insert spoiler
Enter the code: *

Create an account

Advertising