» » Padmaavat (2018) Hindi - 720p - pDVDRip - x264 - MP3 - M2TV Exclusive

Padmaavat (2018) Hindi - 720p - pDVDRip - x264 - MP3 - M2TV Exclusive

Padmaavat (2018) Hindi - 720p - pDVDRip - x264 - MP3 - M2TV Exclusive











Genere: Action, Drama, History

General
Format : Matroska
Format version : Version 4 / Version 2
File size : 1.18 GiB
Duration : 2 h 36 min
Overall bit rate : 1 081 kb/s

Video
ID : 1
Format : AVC
Codec ID : V_MPEG4/ISO/AVC
Duration : 2 h 36 min
Bit rate : 951 kb/s
Width : 1 280 pixels
Height : 544 pixels
Display aspect ratio : 2.35:1
Frame rate mode : Constant
Frame rate : 25.000 FPS
Stream size : 1.04 GiB (88%)
Title : Mafiaking
Language : Hindi
Default : Yes
Forced : No

Audio
ID : 2
Format : MPEG Audio
Codec ID/Hint : MP3
Duration : 2 h 36 min
Bit rate mode : Constant
Bit rate : 128 kb/s
Channel(s) : 2 channels
Stream size : 143 MiB (12%)
Language : Hindi
Default : Yes
Forced : No



Padmaavat (2018) Hindi - 720p - pDVDRip - x264 - MP3 - M2TV ExclusivePadmaavat (2018) Hindi - 720p - pDVDRip - x264 - MP3 - M2TV ExclusivePadmaavat (2018) Hindi - 720p - pDVDRip - x264 - MP3 - M2TV Exclusive
SINGLE DIRECT FAST LINKS

http://filefloater.com/9vq/Padmaavat.2018.720p.Pre-Rip.x264.MP3.Mafiaking-M2Tv.mkv



https://www.heroupload.com/7e052e52b45ea920/Padmaavat.2018.720p.Pre-Rip.x264.MP3.Mafiaking-M2Tv.mkv




Tags: Padmaavat

Comments:

Dear visitor, you went to the site as unregistered user
We encourage you to create an account or enter the site under your name

Add comment

Name:*
E-Mail:*
Text:
Bold Italic Underline Strike | Align left Center Align right | Insert smilies Insert link URLInsert protected URL Select color | Add Hidden Text Insert Quote Convert selected text from selection to Cyrillic (Russian) alphabet Insert spoiler
Enter the code: *

Create an account

Advertising