» » Judwaa 2 (2017) 1080p BluRay x264 DTS-HDMA 7.1 ESub - [TeamHHD]

Judwaa 2 (2017) 1080p BluRay x264 DTS-HDMA 7.1 ESub - [TeamHHD]

Judwaa 2 (2017) 1080p BluRay x264 DTS-HDMA 7.1 ESub - [TeamHHD]







Format                      : Matroska
Format version              : Version 4 / Version 2
File size                   : 16.0 GiB
Duration                    : 2 h 25 min
Overall bit rate            : 15.7 Mb/s


Video
ID                          : 1
Format                      : AVC
Format/Info                 : Advanced Video Codec
Format profile              : High@L4.1
Format settings, CABAC      : Yes
Format settings, RefFrames  : 5 frames
Codec ID                    : V_MPEG4/ISO/AVC
Duration                    : 2 h 25 min
Bit rate                    : 10.2 Mb/s
Width                       : 1 920 pixels
Height                      : 800 pixels
Display aspect ratio        : 2.40:1
Frame rate mode             : Constant
Frame rate                  : 24.000 FPS
Language                    : Hindi
Default                     : Yes
Forced                      : No
Color range                 : Limited
Color primaries             : BT.709
Transfer characteristics    : BT.709
Matrix coefficients         : BT.709

Audio
ID                          : 2
Format                      : DTS
Format/Info                 : Digital Theater Systems
Format profile              : MA / Core
Mode                        : 16
Format settings, Endianness : Big
Codec ID                    : A_DTS
Duration                    : 2 h 25 min
Bit rate mode               : Variable / Constant
Bit rate                    : 5 472 kb/s / 1 509 kb/s
Channel(s)                  : 8 channels / 6 channels
Channel positions           : Front: L C R, Side: L R, Back: L R, LFE / Front: L C R, Side: L R, LFE
Sampling rate               : 48.0 kHz
Frame rate                  : 93.750 FPS (512 SPF)
Bit depth                   : 24 bits
Compression mode            : Lossless / Lossy
Stream size                 : 5.57 GiB (35%)
Language                    : Hindi
Default                     : Yes
Forced                      : No

Text
ID                          : 3
Format                      : UTF-8
Codec ID                    : S_TEXT/UTF8
Codec ID/Info               : UTF-8 Plain Text
Duration                    : 2 h 19 min
Bit rate                    : 63 b/s
Count of elements           : 2049
Stream size                 : 64.5 KiB (0%)
Language                    : English
Default                     : Yes
Forced                      : No


Judwaa 2 (2017) 1080p BluRay x264 DTS-HDMA 7.1 ESub - [TeamHHD]Judwaa 2 (2017) 1080p BluRay x264 DTS-HDMA 7.1 ESub - [TeamHHD]Judwaa 2 (2017) 1080p BluRay x264 DTS-HDMA 7.1 ESub - [TeamHHD]Judwaa 2 (2017) 1080p BluRay x264 DTS-HDMA 7.1 ESub - [TeamHHD]Judwaa 2 (2017) 1080p BluRay x264 DTS-HDMA 7.1 ESub - [TeamHHD]Judwaa 2 (2017) 1080p BluRay x264 DTS-HDMA 7.1 ESub - [TeamHHD]Judwaa 2 (2017) 1080p BluRay x264 DTS-HDMA 7.1 ESub - [TeamHHD]Judwaa 2 (2017) 1080p BluRay x264 DTS-HDMA 7.1 ESub - [TeamHHD]



SINGLE DIRECT FAST LINKS

https://www.heroupload.com/c544921531c5d744/Judwaa.2.2017.Hindi.1080p.BluRay.x264.DTS-HDMA.7.1.ESub-HHD.mkv


2GB LINKS

https://www.heroupload.com/fcee0deb2d88e5ba/Judwaa.2.2017.Hindi.1080p.BluRay.x264.DTS-HDMA.7.1.ESub-HHD.part01.rar
https://www.heroupload.com/d70b2c92929a99bf/Judwaa.2.2017.Hindi.1080p.BluRay.x264.DTS-HDMA.7.1.ESub-HHD.part02.rar
https://www.heroupload.com/b1d80ece38d763c1/Judwaa.2.2017.Hindi.1080p.BluRay.x264.DTS-HDMA.7.1.ESub-HHD.part03.rar
https://www.heroupload.com/5575b96bc82e2991/Judwaa.2.2017.Hindi.1080p.BluRay.x264.DTS-HDMA.7.1.ESub-HHD.part04.rar
https://www.heroupload.com/5d4c1cc33912423c/Judwaa.2.2017.Hindi.1080p.BluRay.x264.DTS-HDMA.7.1.ESub-HHD.part05.rar
https://www.heroupload.com/38fcac973383dcc4/Judwaa.2.2017.Hindi.1080p.BluRay.x264.DTS-HDMA.7.1.ESub-HHD.part06.rar
https://www.heroupload.com/0c5ab7643d351210/Judwaa.2.2017.Hindi.1080p.BluRay.x264.DTS-HDMA.7.1.ESub-HHD.part07.rar
https://www.heroupload.com/8c725057dbe20991/Judwaa.2.2017.Hindi.1080p.BluRay.x264.DTS-HDMA.7.1.ESub-HHD.part08.rar
https://www.heroupload.com/dfc0aef3a0260f02/Judwaa.2.2017.Hindi.1080p.BluRay.x264.DTS-HDMA.7.1.ESub-HHD.part09.rar



http://filefloater.com/4ko/Judwaa.2.2017.Hindi.1080p.BluRay.x264.DTS-HDMA.7.1.ESub-HHD.part01.rar
http://filefloater.com/4kp/Judwaa.2.2017.Hindi.1080p.BluRay.x264.DTS-HDMA.7.1.ESub-HHD.part02.rar
http://filefloater.com/4kq/Judwaa.2.2017.Hindi.1080p.BluRay.x264.DTS-HDMA.7.1.ESub-HHD.part03.rar
http://filefloater.com/4kr/Judwaa.2.2017.Hindi.1080p.BluRay.x264.DTS-HDMA.7.1.ESub-HHD.part04.rar
http://filefloater.com/4ks/Judwaa.2.2017.Hindi.1080p.BluRay.x264.DTS-HDMA.7.1.ESub-HHD.part05.rar
http://filefloater.com/4kt/Judwaa.2.2017.Hindi.1080p.BluRay.x264.DTS-HDMA.7.1.ESub-HHD.part06.rar
http://filefloater.com/4ku/Judwaa.2.2017.Hindi.1080p.BluRay.x264.DTS-HDMA.7.1.ESub-HHD.part07.rar
http://filefloater.com/4kv/Judwaa.2.2017.Hindi.1080p.BluRay.x264.DTS-HDMA.7.1.ESub-HHD.part08.rar
http://filefloater.com/4kw/Judwaa.2.2017.Hindi.1080p.BluRay.x264.DTS-HDMA.7.1.ESub-HHD.part09.rar


Tags: Judwaa

Comments:

Dear visitor, you went to the site as unregistered user
We encourage you to create an account or enter the site under your name

Add comment

Name:*
E-Mail:*
Text:
Bold Italic Underline Strike | Align left Center Align right | Insert smilies Insert link URLInsert protected URL Select color | Add Hidden Text Insert Quote Convert selected text from selection to Cyrillic (Russian) alphabet Insert spoiler
Enter the code: *

Create an account

Advertising