» » Judwaa 2 (2017) 1080p BluRay x264 DTS 5.1 ESub - [TeamHHD]

Judwaa 2 (2017) 1080p BluRay x264 DTS 5.1 ESub - [TeamHHD]

Judwaa 2 (2017) 1080p BluRay x264 DTS 5.1 ESub - [TeamHHD]







Format                      : Matroska
Format version              : Version 4 / Version 2
File size                   : 4.37 GiB
Duration                    : 2 h 25 min
Overall bit rate            : 4 292 kb/s


Video
ID                          : 1
Format                      : AVC
Format/Info                 : Advanced Video Codec
Format profile              : High@L4.1
Format settings, CABAC      : Yes
Format settings, RefFrames  : 5 frames
Codec ID                    : V_MPEG4/ISO/AVC
Duration                    : 2 h 25 min
Bit rate                    : 3 523 kb/s
Width                       : 1 920 pixels
Height                      : 800 pixels
Display aspect ratio        : 2.40:1
Frame rate mode             : Constant
Frame rate                  : 24.000 FPS
Language                    : Hindi
Default                     : Yes
Forced                      : No
Color range                 : Limited
Color primaries             : BT.709
Transfer characteristics    : BT.709
Matrix coefficients         : BT.709

Audio
ID                          : 2
Format                      : DTS
Format/Info                 : Digital Theater Systems
Mode                        : 16
Format settings, Endianness : Big
Codec ID                    : A_DTS
Duration                    : 2 h 25 min
Bit rate mode               : Constant
Bit rate                    : 768 kb/s
Channel(s)                  : 6 channels
Channel positions           : Front: L C R, Side: L R, LFE
Sampling rate               : 48.0 kHz
Frame rate                  : 93.750 FPS (512 SPF)
Bit depth                   : 24 bits
Compression mode            : Lossy
Stream size                 : 801 MiB (18%)
Language                    : Hindi
Default                     : Yes
Forced                      : No

Text
ID                          : 3
Format                      : UTF-8
Codec ID                    : S_TEXT/UTF8
Codec ID/Info               : UTF-8 Plain Text
Duration                    : 2 h 19 min
Bit rate                    : 63 b/s
Count of elements           : 2049
Stream size                 : 64.5 KiB (0%)
Language                    : English
Default                     : Yes
Forced                      : No


Judwaa 2 (2017) 1080p BluRay x264 DTS 5.1 ESub - [TeamHHD]Judwaa 2 (2017) 1080p BluRay x264 DTS 5.1 ESub - [TeamHHD]Judwaa 2 (2017) 1080p BluRay x264 DTS 5.1 ESub - [TeamHHD]Judwaa 2 (2017) 1080p BluRay x264 DTS 5.1 ESub - [TeamHHD]Judwaa 2 (2017) 1080p BluRay x264 DTS 5.1 ESub - [TeamHHD]Judwaa 2 (2017) 1080p BluRay x264 DTS 5.1 ESub - [TeamHHD]Judwaa 2 (2017) 1080p BluRay x264 DTS 5.1 ESub - [TeamHHD]Judwaa 2 (2017) 1080p BluRay x264 DTS 5.1 ESub - [TeamHHD]

SINGLE DIRECT FAST LINKS

https://www.heroupload.com/e873d43880150168/JUDWAA.2.2017.Hindi.1080p.BluRay.x264.DTS.5.1.ESub-HHD.mkv


http://filefloater.com/9ws/JUDWAA.2.2017.Hindi.1080p.BluRay.x264.DTS.5.1.ESub-HHD.mkv

1GB LINKS



https://www.heroupload.com/19b60c69126c731a/JUDWAA.2.2017.Hindi.1080p.BluRay.x264.DTS.5.1.ESub-HHD.part1.rar
https://www.heroupload.com/7f7e5e32d6d5a80d/JUDWAA.2.2017.Hindi.1080p.BluRay.x264.DTS.5.1.ESub-HHD.part2.rar
https://www.heroupload.com/81065acbd5d68eb6/JUDWAA.2.2017.Hindi.1080p.BluRay.x264.DTS.5.1.ESub-HHD.part3.rar
https://www.heroupload.com/cb5dda377a7ba286/JUDWAA.2.2017.Hindi.1080p.BluRay.x264.DTS.5.1.ESub-HHD.part4.rar
https://www.heroupload.com/902bb14b9c771264/JUDWAA.2.2017.Hindi.1080p.BluRay.x264.DTS.5.1.ESub-HHD.part5.rar



http://filefloater.com/9wt/JUDWAA.2.2017.Hindi.1080p.BluRay.x264.DTS.5.1.ESub-HHD.part1.rar
http://filefloater.com/9wu/JUDWAA.2.2017.Hindi.1080p.BluRay.x264.DTS.5.1.ESub-HHD.part2.rar
http://filefloater.com/9wv/JUDWAA.2.2017.Hindi.1080p.BluRay.x264.DTS.5.1.ESub-HHD.part3.rar
http://filefloater.com/9ww/JUDWAA.2.2017.Hindi.1080p.BluRay.x264.DTS.5.1.ESub-HHD.part4.rar
http://filefloater.com/9wx/JUDWAA.2.2017.Hindi.1080p.BluRay.x264.DTS.5.1.ESub-HHD.part5.rar


Tags: Judwaa

Comments:

Dear visitor, you went to the site as unregistered user
We encourage you to create an account or enter the site under your name

Add comment

Name:*
E-Mail:*
Text:
Bold Italic Underline Strike | Align left Center Align right | Insert smilies Insert link URLInsert protected URL Select color | Add Hidden Text Insert Quote Convert selected text from selection to Cyrillic (Russian) alphabet Insert spoiler
Enter the code: *

Create an account

Advertising