» » Haseena Parker (2017) 1080p - WEB-HD - AVC - AAC-DDR Exclusive

Haseena Parker (2017) 1080p - WEB-HD - AVC - AAC-DDR Exclusive

Haseena Parker (2017) 1080p - WEB-HD - AVC - AAC-DDR Exclusive






General
Format                      : MPEG-4
Format profile              : Base Media
Codec ID                    : isom (isom/iso2/avc1/mp41)
File size                   : 9.99 GiB
Duration                    : 1 h 57 min
Overall bit rate mode       : Variable
Overall bit rate            : 12.2 Mb/s
Movie name                  : Haseena Parkar
Performer                   : Shraddha Kapoor,Ankur Bhatia,Siddhant Kapoor,Uttam Halder,Charanpreet Singh,Rajesh Tailang,Yugesh Anil,Satendra Bagasi,Ashmita Kaur Bakshi,Laksh Lalwani,Daya Shankar Pandey,Raj,Priyanka Setia,Nitin Singh,Veer
Genre                       : Biography,Crime,Thriller
ContentType                 : Short Film
Recorded date               : 2017-09-21
Writing application         : Lavf56.40.101
Country                     : India
Cover                       : Yes
Comment                     : In 2007 arrest warrant has been issued against Haseena Parkar following which she is missing. She surrenders herself to the court on the day of the hearing. Haseena is accused of extortion money from builder and looking after the illegal business of he...
IMDB ID                     : tt6512784
ITUNESPODCASTDESC           : In 2007 arrest warrant has been issued against Haseena Parkar following which she is missing. She surrenders herself to the court on the day of the hearing. Haseena is accused of extortion money from builder and looking after the illegal business of her brother settled in Dubai, several allegations are made against which Haseena denies being part of. As no witness turns up against Haseena she is granted bail by the judge.                 Written by alex.mjacko@gmail.com
ReleaseDate                 : 2017-09-21
Tagline                     : The Queen of Mumbai

Video
ID                          : 1
Format                      : AVC
Format/Info                 : Advanced Video Codec
Format profile              : High@L4
Format settings, CABAC      : Yes
Format settings, RefFrames  : 4 frames
Codec ID                    : avc1
Codec ID/Info               : Advanced Video Coding
Duration                    : 1 h 57 min
Bit rate                    : 12.0 Mb/s
Width                       : 1 920 pixels
Height                      : 816 pixels
Display aspect ratio        : 2.35:1
Frame rate mode             : Variable
Frame rate                  : 24.926 FPS
Minimum frame rate          : 0.166 FPS
Maximum frame rate          : 25.000 FPS
Original frame rate         : 25.000 FPS
Color space                 : YUV
Chroma subsampling          : 4:2:0
Bit depth                   : 8 bits
Scan type                   : Progressive
Bits/(Pixel*Frame)          : 0.306
Stream size                 : 9.83 GiB (98%)

Audio
ID                          : 2
Format                      : AAC
Format/Info                 : Advanced Audio Codec
Format profile              : LC
Codec ID                    : 40
Duration                    : 1 h 57 min
Bit rate mode               : Variable
Bit rate                    : 192 kb/s
Maximum bit rate            : 195 kb/s
Channel(s)                  : 2 channels
Channel positions           : Front: L R
Sampling rate               : 48.0 kHz
Frame rate                  : 46.875 FPS (1024 SPF)
Compression mode            : Lossy
Stream size                 : 161 MiB (2%)
Default                     : Yes
Alternate group             : 1



Haseena Parker (2017) 1080p - WEB-HD - AVC - AAC-DDR ExclusiveHaseena Parker (2017) 1080p - WEB-HD - AVC - AAC-DDR ExclusiveHaseena Parker (2017) 1080p - WEB-HD - AVC - AAC-DDR ExclusiveHaseena Parker (2017) 1080p - WEB-HD - AVC - AAC-DDR ExclusiveHaseena Parker (2017) 1080p - WEB-HD - AVC - AAC-DDR Exclusive


SINGLE DIRECT FAST LINKS

https://www.heroupload.com/9a946a52c45b43fc/Haseena.Parker.2017.1080p.WEB-HD.AAC.2.0-DDR.mp4


1GB LINKS

https://www.heroupload.com/3366bb244afc2ddf/Haseena.Parker.2017.1080p.WEB-HD.AAC.2.0-DDR.part01.rar
https://www.heroupload.com/992630f0990c3d27/Haseena.Parker.2017.1080p.WEB-HD.AAC.2.0-DDR.part02.rar
https://www.heroupload.com/fae8eee2dd431c3d/Haseena.Parker.2017.1080p.WEB-HD.AAC.2.0-DDR.part03.rar
https://www.heroupload.com/921666573b2a9fa7/Haseena.Parker.2017.1080p.WEB-HD.AAC.2.0-DDR.part04.rar
https://www.heroupload.com/6fcab941a0ad77e9/Haseena.Parker.2017.1080p.WEB-HD.AAC.2.0-DDR.part05.rar
https://www.heroupload.com/634ffe2083e719c8/Haseena.Parker.2017.1080p.WEB-HD.AAC.2.0-DDR.part06.rar
https://www.heroupload.com/6ecd6c831b4a4007/Haseena.Parker.2017.1080p.WEB-HD.AAC.2.0-DDR.part07.rar
https://www.heroupload.com/8198dc749060070d/Haseena.Parker.2017.1080p.WEB-HD.AAC.2.0-DDR.part08.rar
https://www.heroupload.com/3ac6c9674f3b73dc/Haseena.Parker.2017.1080p.WEB-HD.AAC.2.0-DDR.part09.rar
https://www.heroupload.com/0b71e6fd170a530e/Haseena.Parker.2017.1080p.WEB-HD.AAC.2.0-DDR.part10.rar



http://filefloater.com/4c3/Haseena.Parker.2017.1080p.WEB-HD.AAC.2.0-DDR.part01.rar
http://filefloater.com/4c4/Haseena.Parker.2017.1080p.WEB-HD.AAC.2.0-DDR.part02.rar
http://filefloater.com/4c5/Haseena.Parker.2017.1080p.WEB-HD.AAC.2.0-DDR.part03.rar
http://filefloater.com/4c6/Haseena.Parker.2017.1080p.WEB-HD.AAC.2.0-DDR.part04.rar
http://filefloater.com/4c7/Haseena.Parker.2017.1080p.WEB-HD.AAC.2.0-DDR.part05.rar
http://filefloater.com/4c8/Haseena.Parker.2017.1080p.WEB-HD.AAC.2.0-DDR.part06.rar
http://filefloater.com/4c9/Haseena.Parker.2017.1080p.WEB-HD.AAC.2.0-DDR.part07.rar
http://filefloater.com/4ca/Haseena.Parker.2017.1080p.WEB-HD.AAC.2.0-DDR.part08.rar
http://filefloater.com/4cb/Haseena.Parker.2017.1080p.WEB-HD.AAC.2.0-DDR.part09.rar
http://filefloater.com/4cc/Haseena.Parker.2017.1080p.WEB-HD.AAC.2.0-DDR.part10.rar



Tags: Haseena

Comments:

Dear visitor, you went to the site as unregistered user
We encourage you to create an account or enter the site under your name

Add comment

Name:*
E-Mail:*
Text:
Bold Italic Underline Strike | Align left Center Align right | Insert smilies Insert link URLInsert protected URL Select color | Add Hidden Text Insert Quote Convert selected text from selection to Cyrillic (Russian) alphabet Insert spoiler
Enter the code: *

Create an account

Partner Site

Advertising