» » Paisa (Kartoos The Target) (2013) 720p HDRip x264 ESubs Dual A[Hindi+Telug]-Team IcTv

Paisa (Kartoos The Target) (2013) 720p HDRip x264 ESubs Dual A[Hindi+Telug]-Team IcTv

Paisa (Kartoos The Target) (2013) 720p HDRip x264 ESubs Dual A[Hindi+Telug]-Team IcTv





http://www.imdb.com/title/tt3369096/

General
Format                      : Matroska
Format version              : Version 4 / Version 2
File size                   : 1.33 GiB
Duration                    : 2 h 17 min
Overall bit rate mode       : Variable
Overall bit rate            : 1 387 kb/s
Encoded date                : UTC 2017-12-23 18:04:51
Writing application         : mkvmerge v17.0.0 ('Be Ur Friend') 64-bit
Writing library             : libebml v1.3.5 + libmatroska v1.4.8

Video
ID                          : 1
Format                      : AVC
Format/Info                 : Advanced Video Codec
Format profile              : High@L3.1
Format settings, CABAC      : Yes
Format settings, RefFrames  : 4 frames
Codec ID                    : V_MPEG4/ISO/AVC
Duration                    : 2 h 17 min
Bit rate                    : 967 kb/s
Width                       : 1 280 pixels
Height                      : 552 pixels
Display aspect ratio        : 2.35:1
Frame rate mode             : Constant
Frame rate                  : 24.000 FPS
Color space                 : YUV
Chroma subsampling          : 4:2:0
Bit depth                   : 8 bits
Scan type                   : Progressive
Bits/(Pixel*Frame)          : 0.057
Stream size                 : 950 MiB (70%)
Writing library             : x264 core 152 r2851 ba24899
Encoding settings           : cabac=1 / ref=3 / deblock=1:0:0 / analyse=0x3:0x113 / me=hex / subme=7 / psy=1 / psy_rd=1.00:0.00 / mixed_ref=1 / me_range=16 / chroma_me=1 / trellis=1 / 8x8dct=1 / cqm=0 / deadzone=21,11 / fast_pskip=1 / chroma_qp_offset=-2 / threads=12 / lookahead_threads=2 / sliced_threads=0 / nr=0 / decimate=1 / interlaced=0 / bluray_compat=0 / constrained_intra=0 / bframes=3 / b_pyramid=2 / b_adapt=1 / b_bias=0 / direct=1 / weightb=1 / open_gop=0 / weightp=2 / keyint=240 / keyint_min=24 / scenecut=40 / intra_refresh=0 / rc_lookahead=40 / rc=2pass / mbtree=1 / bitrate=967 / ratetol=1.0 / qcomp=0.60 / qpmin=0 / qpmax=69 / qpstep=4 / cplxblur=20.0 / qblur=0.5 / ip_ratio=1.40 / aq=1:1.00
Default                     : Yes
Forced                      : No

Audio #1
ID                          : 2
Format                      : AC-3
Format/Info                 : Audio Coding 3
Format settings, Endianness : Big
Codec ID                    : A_AC3
Duration                    : 2 h 17 min
Bit rate mode               : Constant
Bit rate                    : 384 kb/s
Channel(s)                  : 2 channels
Channel positions           : Front: L R
Sampling rate               : 44.1 kHz
Frame rate                  : 28.711 FPS (1536 SPF)
Bit depth                   : 16 bits
Compression mode            : Lossy
Stream size                 : 377 MiB (28%)
Language                    : Telugu
Service kind                : Complete Main
Default                     : No
Forced                      : No

Audio #2
ID                          : 4
Format                      : MPEG Audio
Format version              : Version 2
Format profile              : Layer 3
Mode                        : Joint stereo
Codec ID                    : A_MPEG/L3
Codec ID/Hint               : MP3
Duration                    : 2 h 17 min
Bit rate mode               : Variable
Bit rate                    : 34.1 kb/s
Channel(s)                  : 2 channels
Sampling rate               : 22.05 kHz
Frame rate                  : 38.281 FPS (576 SPF)
Compression mode            : Lossy
Delay relative to video     : 83 ms
Stream size                 : 33.5 MiB (2%)
Language                    : Hindi
Default                     : Yes
Forced                      : Yes

Text
ID                          : 3
Format                      : UTF-8
Codec ID                    : S_TEXT/UTF8
Codec ID/Info               : UTF-8 Plain Text
Duration                    : 2 h 14 min
Bit rate                    : 39 b/s
Count of elements           : 1236
Stream size                 : 39.2 KiB (0%)
Language                    : English
Default                     : Yes
Forced                      : Yes


Paisa (Kartoos The Target) (2013) 720p HDRip x264 ESubs Dual A[Hindi+Telug]-Team IcTvPaisa (Kartoos The Target) (2013) 720p HDRip x264 ESubs Dual A[Hindi+Telug]-Team IcTvPaisa (Kartoos The Target) (2013) 720p HDRip x264 ESubs Dual A[Hindi+Telug]-Team IcTvPaisa (Kartoos The Target) (2013) 720p HDRip x264 ESubs Dual A[Hindi+Telug]-Team IcTvPaisa (Kartoos The Target) (2013) 720p HDRip x264 ESubs Dual A[Hindi+Telug]-Team IcTv



SINGLE DIRECT FAST LINKS

https://www.heroupload.com/6a7c013ca02ea6d8/Paisa.Kartoos.The.Target.2013.720p.Uncut.HDRip.x264.ESubs.Dual.Audio.Hindi.Org.DD2.0+Telugu.DD5.1-Team.IcTV.mkv




Tags: Paisa

Comments:

Dear visitor, you went to the site as unregistered user
We encourage you to create an account or enter the site under your name

Add comment

Name:*
E-Mail:*
Text:
Bold Italic Underline Strike | Align left Center Align right | Insert smilies Insert link URLInsert protected URL Select color | Add Hidden Text Insert Quote Convert selected text from selection to Cyrillic (Russian) alphabet Insert spoiler
Enter the code: *

Create an account

Advertising