» » Dangerous Romeo (Pyar Mein Padipoyane) (2014) Hindi 720p HDRip x264 AAC-Team IcTv

Dangerous Romeo (Pyar Mein Padipoyane) (2014) Hindi 720p HDRip x264 AAC-Team IcTv

Dangerous Romeo (Pyar Mein Padipoyane) (2014) Hindi 720p HDRip x264 AAC-Team IcTv





http://www.imdb.com/title/tt6543328/

General
Format                      : Matroska
Format version              : Version 4 / Version 2
File size                   : 898 MiB
Duration                    : 2 h 8 min
Overall bit rate            : 976 kb/s
Encoded date                : UTC 2017-12-23 17:35:18
Writing application         : mkvmerge v17.0.0 ('Be Ur Friend') 64-bit
Writing library             : libebml v1.3.5 + libmatroska v1.4.8

Video
ID                          : 1
Format                      : AVC
Format/Info                 : Advanced Video Codec
Format profile              : High@L3.1
Format settings, CABAC      : Yes
Format settings, RefFrames  : 4 frames
Codec ID                    : V_MPEG4/ISO/AVC
Duration                    : 2 h 8 min
Bit rate                    : 590 kb/s
Width                       : 1 272 pixels
Height                      : 544 pixels
Display aspect ratio        : 2.35:1
Frame rate mode             : Constant
Frame rate                  : 25.000 FPS
Color space                 : YUV
Chroma subsampling          : 4:2:0
Bit depth                   : 8 bits
Scan type                   : Progressive
Bits/(Pixel*Frame)          : 0.034
Stream size                 : 543 MiB (60%)
Writing library             : x264 core 152 r2851 ba24899
Encoding settings           : cabac=1 / ref=3 / deblock=1:0:0 / analyse=0x3:0x113 / me=hex / subme=7 / psy=1 / psy_rd=1.00:0.00 / mixed_ref=1 / me_range=16 / chroma_me=1 / trellis=1 / 8x8dct=1 / cqm=0 / deadzone=21,11 / fast_pskip=1 / chroma_qp_offset=-2 / threads=12 / lookahead_threads=2 / sliced_threads=0 / nr=0 / decimate=1 / interlaced=0 / bluray_compat=0 / constrained_intra=0 / bframes=3 / b_pyramid=2 / b_adapt=1 / b_bias=0 / direct=1 / weightb=1 / open_gop=0 / weightp=2 / keyint=250 / keyint_min=25 / scenecut=40 / intra_refresh=0 / rc_lookahead=40 / rc=2pass / mbtree=1 / bitrate=590 / ratetol=1.0 / qcomp=0.60 / qpmin=0 / qpmax=69 / qpstep=4 / cplxblur=20.0 / qblur=0.5 / ip_ratio=1.40 / aq=1:1.00
Default                     : Yes
Forced                      : No

Audio
ID                          : 2
Format                      : AC-3
Format/Info                 : Audio Coding 3
Format settings, Endianness : Big
Codec ID                    : A_AC3
Duration                    : 2 h 8 min
Bit rate mode               : Constant
Bit rate                    : 384 kb/s
Channel(s)                  : 2 channels
Channel positions           : Front: L R
Sampling rate               : 44.1 kHz
Frame rate                  : 28.711 FPS (1536 SPF)
Bit depth                   : 16 bits
Compression mode            : Lossy
Stream size                 : 353 MiB (39%)
Language                    : English
Service kind                : Complete Main
Default                     : Yes
Forced                      : No



Dangerous Romeo (Pyar Mein Padipoyane) (2014) Hindi 720p HDRip x264 AAC-Team IcTvDangerous Romeo (Pyar Mein Padipoyane) (2014) Hindi 720p HDRip x264 AAC-Team IcTvDangerous Romeo (Pyar Mein Padipoyane) (2014) Hindi 720p HDRip x264 AAC-Team IcTvDangerous Romeo (Pyar Mein Padipoyane) (2014) Hindi 720p HDRip x264 AAC-Team IcTvDangerous Romeo (Pyar Mein Padipoyane) (2014) Hindi 720p HDRip x264 AAC-Team IcTvDangerous Romeo (Pyar Mein Padipoyane) (2014) Hindi 720p HDRip x264 AAC-Team IcTvDangerous Romeo (Pyar Mein Padipoyane) (2014) Hindi 720p HDRip x264 AAC-Team IcTv


SINGLE DIRECT FAST LINKS


https://www.heroupload.com/6ccda3cdcf079c64/Dangerous.Romeo.Pyar.Mein.Padipoyane.2014.Hindi.720p.HDRip.x264.AAC-Team.IcTv.mkv



Tags: Dangerous

Comments:

Dear visitor, you went to the site as unregistered user
We encourage you to create an account or enter the site under your name

Add comment

Name:*
E-Mail:*
Text:
Bold Italic Underline Strike | Align left Center Align right | Insert smilies Insert link URLInsert protected URL Select color | Add Hidden Text Insert Quote Convert selected text from selection to Cyrillic (Russian) alphabet Insert spoiler
Enter the code: *

Create an account

Advertising