» » Aksar 2 (2017) 700MB - 1CDRip - pDVDRip - x264 - MP3-M2Tv

Aksar 2 (2017) 700MB - 1CDRip - pDVDRip - x264 - MP3-M2Tv

Aksar 2 (2017) 700MB - 1CDRip - pDVDRip - x264 - MP3-M2Tv








General
Format                      : Matroska
File size                   : 697 MiB
Duration                    : 1 h 50 min
Overall bit rate            : 883 kb/s

Video
ID                          : 1
Format                      : AVC
Codec ID                    : V_MPEG4/ISO/AVC
Duration                    : 1 h 50 min
Bit rate                    : 801 kb/s
Width                       : 640 pixels
Height                      : 272 pixels
Display aspect ratio        : 2.35:1
Frame rate mode             : Constant
Frame rate                  : 25.000 FPS
Stream size                 : 633 MiB (91%)
Title                       : Mafiaking
Language                    : Hindi
Default                     : Yes
Forced                      : No

Audio
ID                          : 2
Format                      : MPEG Audio
Codec ID/Hint               : MP3
Duration                    : 1 h 50 min
Bit rate mode               : Constant
Bit rate                    : 80.0 kb/s
Channel(s)                  : 2 channels
Stream size                 : 63.2 MiB (9%)
Title                       : Mafiaking
Language                    : Hindi
Default                     : Yes
Forced                      : No 


Aksar 2 (2017) 700MB - 1CDRip - pDVDRip - x264 - MP3-M2TvAksar 2 (2017) 700MB - 1CDRip - pDVDRip - x264 - MP3-M2TvAksar 2 (2017) 700MB - 1CDRip - pDVDRip - x264 - MP3-M2TvAksar 2 (2017) 700MB - 1CDRip - pDVDRip - x264 - MP3-M2TvAksar 2 (2017) 700MB - 1CDRip - pDVDRip - x264 - MP3-M2TvAksar 2 (2017) 700MB - 1CDRip - pDVDRip - x264 - MP3-M2TvAksar 2 (2017) 700MB - 1CDRip - pDVDRip - x264 - MP3-M2TvAksar 2 (2017) 700MB - 1CDRip - pDVDRip - x264 - MP3-M2TvAksar 2 (2017) 700MB - 1CDRip - pDVDRip - x264 - MP3-M2Tv


SINGLE DIRECT FAST LINKS

http://www.heroupload.com/4174b366255ff02d/AKSAR.2.2017.1CD.PreDVD-Rip.x264.MP3.Mafiaking-M2Tv.mkv


Tags: Aksar

Comments:

Dear visitor, you went to the site as unregistered user
We encourage you to create an account or enter the site under your name

Add comment

Name:*
E-Mail:*
Text:
Bold Italic Underline Strike | Align left Center Align right | Insert smilies Insert link URLInsert protected URL Select color | Add Hidden Text Insert Quote Convert selected text from selection to Cyrillic (Russian) alphabet Insert spoiler
Enter the code: *

Create an account

Partner Site

Advertising