» » Golmaal Again (2017) 1080p - BluRay - x264 - DTS 5.1 - ESubs-[HHD-Exclusive]

Golmaal Again (2017) 1080p - BluRay - x264 - DTS 5.1 - ESubs-[HHD-Exclusive]

Golmaal Again (2017) 1080p - BluRay - x264 - DTS 5.1 - ESubs-[HHD-Exclusive]





General
Format                                   : Matroska
Format version                           : Version 4 / Version 2
File size                                : 7.96 GiB
Duration                                 : 2 h 31 min
Overall bit rate                         : 7 544 kb/s
Movie name                               : Golmaal Again---Pasha@Hon3yHD

Video
Format                                   : AVC
Format/Info                              : Advanced Video Codec
Format profile                           : High@L4.1
Format settings, CABAC                   : Yes
Format settings, RefFrames               : 5 frames
Codec ID                                 : V_MPEG4/ISO/AVC
Duration                                 : 2 h 31 min
Bit rate                                 : 6 020 kb/s
Width                                    : 1 920 pixels
Height                                   : 800 pixels
Display aspect ratio                     : 2.40:1
Frame rate mode                          : Constant
Frame rate                               : 24.000 FPS
Color space                              : YUV
Chroma subsampling                       : 4:2:0
Bit depth                                : 8 bits
Scan type                                : Progressive
Bits/(Pixel*Frame)                       : 0.163
Stream size                              : 6.35 GiB (80%)
Title                                    : Golmaal Again---Pasha@Hon3yHD

Audio
Format                                   : DTS
Format/Info                              : Digital Theater Systems
Mode                                     : 16
Format settings, Endianness              : Big
Codec ID                                 : A_DTS
Duration                                 : 2 h 31 min
Bit rate mode                            : Constant
Bit rate                                 : 1 509 kb/s
Channel(s)                               : 6 channels
Channel positions                        : Front: L C R, Side: L R, LFE
Sampling rate                            : 48.0 kHz
Frame rate                               : 93.750 FPS (512 SPF)
Bit depth                                : 24 bits
Compression mode                         : Lossy
Stream size                              : 1.59 GiB (20%)
Title                                    : Hindi---Pasha@Hon3yHD
Language                                 : Hindi
Default                                  : Yes

SubTitle
Format                                   : PGS
Muxing mode                              : zlib
Codec ID                                 : S_HDMV/PGS
Codec ID/Info                            : Picture based subtitle format used on BDs/HD-DVDs
Duration                                 : 2 h 25 min
Bit rate                                 : 13.4 kb/s
Count of elements                        : 4117
Stream size                              : 13.9 MiB (0%)
Title                                    : English---Pasha@Hon3yHD
Language                                 : English
Default                                  : Yes



Golmaal Again (2017) 1080p - BluRay - x264 - DTS 5.1 - ESubs-[HHD-Exclusive]
Golmaal Again (2017) 1080p - BluRay - x264 - DTS 5.1 - ESubs-[HHD-Exclusive]
Golmaal Again (2017) 1080p - BluRay - x264 - DTS 5.1 - ESubs-[HHD-Exclusive]
Golmaal Again (2017) 1080p - BluRay - x264 - DTS 5.1 - ESubs-[HHD-Exclusive]
Golmaal Again (2017) 1080p - BluRay - x264 - DTS 5.1 - ESubs-[HHD-Exclusive]
Golmaal Again (2017) 1080p - BluRay - x264 - DTS 5.1 - ESubs-[HHD-Exclusive]
Golmaal Again (2017) 1080p - BluRay - x264 - DTS 5.1 - ESubs-[HHD-Exclusive]
Golmaal Again (2017) 1080p - BluRay - x264 - DTS 5.1 - ESubs-[HHD-Exclusive]


SINGLE DIRECT FAST LINKS

http://www.heroupload.com/64069a3fa6897ff0/Golmaal.Again.2017.Hindi.BluRay.1080p.x264.DTS.5.1.ESubs-HHD.mkv


1GB LINKS


http://www.heroupload.com/3ceca9e872b72b2e/Golmaal.Again.2017.Hindi.BluRay.1080p.x264.DTS.5.1.ESubs-HHD.part01.rar
http://www.heroupload.com/a08423109f9b14ff/Golmaal.Again.2017.Hindi.BluRay.1080p.x264.DTS.5.1.ESubs-HHD.part02.rar
http://www.heroupload.com/c3a55f9e36209be9/Golmaal.Again.2017.Hindi.BluRay.1080p.x264.DTS.5.1.ESubs-HHD.part03.rar
http://www.heroupload.com/e5d3762c74b0d1e8/Golmaal.Again.2017.Hindi.BluRay.1080p.x264.DTS.5.1.ESubs-HHD.part04.rar
http://www.heroupload.com/be552a7a2a4cfe76/Golmaal.Again.2017.Hindi.BluRay.1080p.x264.DTS.5.1.ESubs-HHD.part05.rar
http://www.heroupload.com/24582ef2cdbad2cc/Golmaal.Again.2017.Hindi.BluRay.1080p.x264.DTS.5.1.ESubs-HHD.part06.rar
http://www.heroupload.com/e78ae173eea40c41/Golmaal.Again.2017.Hindi.BluRay.1080p.x264.DTS.5.1.ESubs-HHD.part07.rar
http://www.heroupload.com/afdd4286146e0dc0/Golmaal.Again.2017.Hindi.BluRay.1080p.x264.DTS.5.1.ESubs-HHD.part08.rar




Tags: Golmaal

Comments:

Dear visitor, you went to the site as unregistered user
We encourage you to create an account or enter the site under your name

Add comment

Name:*
E-Mail:*
Text:
Bold Italic Underline Strike | Align left Center Align right | Insert smilies Insert link URLInsert protected URL Select color | Add Hidden Text Insert Quote Convert selected text from selection to Cyrillic (Russian) alphabet Insert spoiler
Enter the code: *

Create an account

Partner Site

Advertising