» » Ittefaq (2017) 1GB - 720p - HDRip - x264 - AAC 5.1-TeamHHD

Ittefaq (2017) 1GB - 720p - HDRip - x264 - AAC 5.1-TeamHHD

Ittefaq (2017) 1GB - 720p - HDRip - x264 - AAC 5.1-TeamHHD







General
Format                                   : Matroska
Format version                           : Version 4 / Version 2
File size                                : 901 MiB
Duration                                 : 1 h 45 min
Overall bit rate                         : 1 194 kb/s
Movie name                               : Ittefaq---Pasha@Hon3yHD

Video
Format                                   : AVC
Format/Info                              : Advanced Video Codec
Format profile                           : High@L4.1
Format settings, CABAC                   : Yes
Format settings, RefFrames               : 8 frames
Codec ID                                 : V_MPEG4/ISO/AVC
Duration                                 : 1 h 45 min
Bit rate                                 : 1 000 kb/s
Width                                    : 1 280 pixels
Height                                   : 536 pixels
Display aspect ratio                     : 2.40:1
Frame rate mode                          : Constant
Frame rate                               : 24.000 FPS
Color space                              : YUV
Chroma subsampling                       : 4:2:0
Bit depth                                : 8 bits
Scan type                                : Progressive
Bits/(Pixel*Frame)                       : 0.061
Stream size                              : 755 MiB (84%)
Title                                    : Ittefaq---Pasha@Hon3yHD

Audio
Format                                   : AAC
Format/Info                              : Advanced Audio Codec
Format profile                           : LC
Codec ID                                 : A_AAC
Duration                                 : 1 h 45 min
Bit rate                                 : 192 kb/s
Channel(s)                               : 6 channels
Channel positions                        : Front: L C R, Side: L R, LFE
Sampling rate                            : 48.0 kHz
Frame rate                               : 46.875 FPS (1024 SPF)
Compression mode                         : Lossy
Delay relative to video                  : -21 ms
Stream size                              : 144 MiB (16%)
Title                                    : Hindi---Pasha@Hon3yHD
Language                                 : Hindi
Default                                  : Yes








Ittefaq (2017) 1GB - 720p - HDRip - x264 - AAC 5.1-TeamHHD
Ittefaq (2017) 1GB - 720p - HDRip - x264 - AAC 5.1-TeamHHD
Ittefaq (2017) 1GB - 720p - HDRip - x264 - AAC 5.1-TeamHHD
Ittefaq (2017) 1GB - 720p - HDRip - x264 - AAC 5.1-TeamHHD
Ittefaq (2017) 1GB - 720p - HDRip - x264 - AAC 5.1-TeamHHD
Ittefaq (2017) 1GB - 720p - HDRip - x264 - AAC 5.1-TeamHHD

SINGLE DIRECT FAST LINKS

http://www.heroupload.com/ccc5fd8c63a569f8/Ittefaq.2017.Hindi.720p.HDRip.x264.AAC.5.1-HHD.mkv



Tags: Ittefaq

Comments:

Dear visitor, you went to the site as unregistered user
We encourage you to create an account or enter the site under your name

Add comment

Name:*
E-Mail:*
Text:
Bold Italic Underline Strike | Align left Center Align right | Insert smilies Insert link URLInsert protected URL Select color | Add Hidden Text Insert Quote Convert selected text from selection to Cyrillic (Russian) alphabet Insert spoiler
Enter the code: *

Create an account

Partner Site

Advertising