» » Ittefaq (2017) 2048p - 2K Ultra WEB-HD - AVC - DTS 5.1-Team Jio Exclusive

Ittefaq (2017) 2048p - 2K Ultra WEB-HD - AVC - DTS 5.1-Team Jio Exclusive

Ittefaq (2017) 2048p - 2K Ultra WEB-HD - AVC - DTS 5.1-Team Jio Exclusive






Format                      : Matroska
Format version              : Version 4 / Version 2
File size                   : 4.34 GiB
Duration                    : 1 h 45 min
Overall bit rate            : 5 891 kb/s
Encoded date                : UTC 2017-12-15 05:15:15
Writing application         : mkvmerge v18.0.0 ('Apricity') 64-bit
Writing library             : libebml v1.3.5 + libmatroska v1.4.8

Video
ID                          : 1
Format                      : VP9
Codec ID                    : V_VP9
Duration                    : 1 h 45 min
Bit rate                    : 2 049 kb/s
Width                       : 2 048 pixels
Height                      : 1 080 pixels
Display aspect ratio        : 1.896
Frame rate mode             : Constant
Frame rate                  : 24.000 FPS
Bits/(Pixel*Frame)          : 0.039
Stream size                 : 1.51 GiB (35%)
Default                     : Yes
Forced                      : No

Audio
ID                          : 2
Format                      : DTS
Format/Info                 : Digital Theater Systems
Codec ID                    : A_DTS
Duration                    : 1 h 45 min
Bit rate mode               : Constant
Bit rate                    : 3 840 kb/s
Channel(s)                  : 6 channels
Channel positions           : Front: L C R, Side: L R, LFE
Sampling rate               : 48.0 kHz
Frame rate                  : 93.750 FPS (512 SPF)
Bit depth                   : 24 bits
Compression mode            : Lossy
Stream size                 : 2.83 GiB (65%)
Default                     : Yes
Forced                      : No


Ittefaq (2017) 2048p - 2K Ultra WEB-HD - AVC - DTS 5.1-Team Jio ExclusiveIttefaq (2017) 2048p - 2K Ultra WEB-HD - AVC - DTS 5.1-Team Jio ExclusiveIttefaq (2017) 2048p - 2K Ultra WEB-HD - AVC - DTS 5.1-Team Jio ExclusiveIttefaq (2017) 2048p - 2K Ultra WEB-HD - AVC - DTS 5.1-Team Jio ExclusiveIttefaq (2017) 2048p - 2K Ultra WEB-HD - AVC - DTS 5.1-Team Jio ExclusiveIttefaq (2017) 2048p - 2K Ultra WEB-HD - AVC - DTS 5.1-Team Jio ExclusiveIttefaq (2017) 2048p - 2K Ultra WEB-HD - AVC - DTS 5.1-Team Jio ExclusiveIttefaq (2017) 2048p - 2K Ultra WEB-HD - AVC - DTS 5.1-Team Jio ExclusiveIttefaq (2017) 2048p - 2K Ultra WEB-HD - AVC - DTS 5.1-Team Jio ExclusiveIttefaq (2017) 2048p - 2K Ultra WEB-HD - AVC - DTS 5.1-Team Jio Exclusive


SINGLE DIRECT FAST LINKS

http://www.heroupload.com/e2cb6f866d693932/Ittefaq.2017.Untouched.2k.UHD.DTS.5.1.Audio.ESUBS-_Team.Jio.Exclusive.mkv


1GB LINKS


http://www.heroupload.com/f43933698b4d1918/Ittefaq.2017.Untouched.2k.UHD.DTS.5.1.Audio.ESUBS-_Team.Jio.Exclusive.part1.rar
http://www.heroupload.com/3a673316fc65efaa/Ittefaq.2017.Untouched.2k.UHD.DTS.5.1.Audio.ESUBS-_Team.Jio.Exclusive.part2.rar
http://www.heroupload.com/5cdc9e54fcc2dcd4/Ittefaq.2017.Untouched.2k.UHD.DTS.5.1.Audio.ESUBS-_Team.Jio.Exclusive.part3.rar
http://www.heroupload.com/479e58dc87073d26/Ittefaq.2017.Untouched.2k.UHD.DTS.5.1.Audio.ESUBS-_Team.Jio.Exclusive.part4.rar
http://www.heroupload.com/2eb74708668a90cd/Ittefaq.2017.Untouched.2k.UHD.DTS.5.1.Audio.ESUBS-_Team.Jio.Exclusive.part5.rar
http://www.heroupload.com/536aaaadd528a11a/Ittefaq.2017.Untouched.2k.UHD.DTS.5.1.Audio.ESUBS-_Team.Jio.Exclusive.srt


Tags: Ittefaq

Comments:

Dear visitor, you went to the site as unregistered user
We encourage you to create an account or enter the site under your name

Add comment

Name:*
E-Mail:*
Text:
Bold Italic Underline Strike | Align left Center Align right | Insert smilies Insert link URLInsert protected URL Select color | Add Hidden Text Insert Quote Convert selected text from selection to Cyrillic (Russian) alphabet Insert spoiler
Enter the code: *

Create an account

Partner Site

Advertising