» » Baahubali 2 The Conclusion (2017) Hindi BluRay 1080p x264 DTS 5.1 ESubs [TeamHHD]

Baahubali 2 The Conclusion (2017) Hindi BluRay 1080p x264 DTS 5.1 ESubs [TeamHHD]

Baahubali 2 The Conclusion (2017) Hindi BluRay 1080p x264 DTS 5.1 ESubs [TeamHHD]







General
Format                                   : Matroska
Format version                           : Version 4 / Version 2
File size                                : 7.95 GiB
Duration                                 : 2 h 46 min
Overall bit rate                         : 6 824 kb/s
Movie name                               : Baahubali 2: The Conclusion---Pasha@Hon3yHD

Video
Format                                   : AVC
Format/Info                              : Advanced Video Codec
Format profile                           : High@L4.1
Format settings, CABAC                   : Yes
Format settings, RefFrames               : 5 frames
Codec ID                                 : V_MPEG4/ISO/AVC
Duration                                 : 2 h 46 min
Bit rate                                 : 5 300 kb/s
Width                                    : 1 920 pixels
Height                                   : 800 pixels
Display aspect ratio                     : 2.40:1
Frame rate mode                          : Constant
Frame rate                               : 24.000 FPS
Color space                              : YUV
Chroma subsampling                       : 4:2:0
Bit depth                                : 8 bits
Scan type                                : Progressive
Bits/(Pixel*Frame)                       : 0.144
Stream size                              : 6.17 GiB (78%)
Title                                    : Baahubali 2: The Conclusion---Pasha@Hon3yHD

Audio
Format                                   : DTS
Format/Info                              : Digital Theater Systems
Mode                                     : 16
Format settings, Endianness              : Big
Codec ID                                 : A_DTS
Duration                                 : 2 h 46 min
Bit rate mode                            : Constant
Bit rate                                 : 1 509 kb/s
Channel(s)                               : 6 channels
Channel positions                        : Front: L C R, Side: L R, LFE
Sampling rate                            : 48.0 kHz
Frame rate                               : 93.750 FPS (512 SPF)
Bit depth                                : 24 bits
Compression mode                         : Lossy
Stream size                              : 1.76 GiB (22%)
Title                                    : Hindi---Pasha@Hon3yHD
Language                                 : Hindi
Default                                  : Yes
Forced                                   : No

SubTitle
Format                                   : PGS
Muxing mode                              : zlib
Codec ID                                 : S_HDMV/PGS
Codec ID/Info                            : Picture based subtitle format used on BDs/HD-DVDs
Duration                                 : 2 h 40 min
Bit rate                                 : 14.8 kb/s
Count of elements                        : 2503
Stream size                              : 17.1 MiB (0%)
Title                                    : English PGS---Pasha@Hon3yHD
Language                                 : English
Default                                  : Yes




Baahubali 2 The Conclusion (2017) Hindi BluRay 1080p x264 DTS 5.1 ESubs [TeamHHD]
Baahubali 2 The Conclusion (2017) Hindi BluRay 1080p x264 DTS 5.1 ESubs [TeamHHD]
Baahubali 2 The Conclusion (2017) Hindi BluRay 1080p x264 DTS 5.1 ESubs [TeamHHD]
Baahubali 2 The Conclusion (2017) Hindi BluRay 1080p x264 DTS 5.1 ESubs [TeamHHD]

[B] SINGLE DIRECT FAST LINKS[/B]

http://www.heroupload.com/ff27c2ddeaf2d56e/Baahubali.2.The.Conclusion.2017.Hindi.BluRay.1080p.x264.DTS.5.1.ESubs-HHD.mkv


[B]1GB LINKS[/B]



http://www.heroupload.com/e620168ca819c86a/Baahubali.2.The.Conclusion.2017.Hindi.BluRay.1080p.x264.DTS.5.1.ESubs-HHD.part01.rar
http://www.heroupload.com/7ea8f3a3006fa0ca/Baahubali.2.The.Conclusion.2017.Hindi.BluRay.1080p.x264.DTS.5.1.ESubs-HHD.part02.rar
http://www.heroupload.com/98121652e2348e67/Baahubali.2.The.Conclusion.2017.Hindi.BluRay.1080p.x264.DTS.5.1.ESubs-HHD.part03.rar
http://www.heroupload.com/e86b95016f876795/Baahubali.2.The.Conclusion.2017.Hindi.BluRay.1080p.x264.DTS.5.1.ESubs-HHD.part04.rar
http://www.heroupload.com/c00e2b8ee9f6f46f/Baahubali.2.The.Conclusion.2017.Hindi.BluRay.1080p.x264.DTS.5.1.ESubs-HHD.part05.rar
http://www.heroupload.com/4dd4e832809ce2a8/Baahubali.2.The.Conclusion.2017.Hindi.BluRay.1080p.x264.DTS.5.1.ESubs-HHD.part06.rar
http://www.heroupload.com/3563a5eb4b350473/Baahubali.2.The.Conclusion.2017.Hindi.BluRay.1080p.x264.DTS.5.1.ESubs-HHD.part07.rar
http://www.heroupload.com/5196a37f9c502667/Baahubali.2.The.Conclusion.2017.Hindi.BluRay.1080p.x264.DTS.5.1.ESubs-HHD.part08.rar


Comments:

Dear visitor, you went to the site as unregistered user
We encourage you to create an account or enter the site under your name

Add comment

Name:*
E-Mail:*
Text:
Bold Italic Underline Strike | Align left Center Align right | Insert smilies Insert link URLInsert protected URL Select color | Add Hidden Text Insert Quote Convert selected text from selection to Cyrillic (Russian) alphabet Insert spoiler
Enter the code: *

Create an account

Who's Online?

Module online =)

Advertising

Tag Cloud

dle, news, templates