» » Kaththi (2014) 720p HDRip x264 ESub [Dual Audio][Tamil+Hindi] - Team IcTv Exclusive

Kaththi (2014) 720p HDRip x264 ESub [Dual Audio][Tamil+Hindi] - Team IcTv Exclusive

Kaththi (2014) 720p HDRip x264 ESub [Dual Audio][Tamil+Hindi] - Team IcTv Exclusive

Khaki Aur Khiladi - Kaththi (2014) Most Awaited Hindi Dubbed Tamil Movie 1st On Net Exclusive






http://www.imdb.com/title/tt3801314/

General
Format                      : Matroska
Format version              : Version 4 / Version 2
File size                   : 1.58 GiB
Duration                    : 2 h 37 min
Overall bit rate            : 1 435 kb/s
Encoded date                : UTC 2017-12-14 07:52:01
Writing application         : mkvmerge v17.0.0 ('Be Ur Friend') 64-bit
Writing library             : libebml v1.3.5 + libmatroska v1.4.8

Video
ID                          : 1
Format                      : AVC
Format/Info                 : Advanced Video Codec
Format profile              : High@L3.1
Format settings, CABAC      : Yes
Format settings, RefFrames  : 4 frames
Codec ID                    : V_MPEG4/ISO/AVC
Duration                    : 2 h 36 min
Bit rate                    : 1 024 kb/s
Width                       : 1 280 pixels
Height                      : 544 pixels
Display aspect ratio        : 2.35:1
Frame rate mode             : Constant
Frame rate                  : 24.000 FPS
Color space                 : YUV
Chroma subsampling          : 4:2:0
Bit depth                   : 8 bits
Scan type                   : Progressive
Bits/(Pixel*Frame)          : 0.061
Stream size                 : 1.12 GiB (71%)
Writing library             : x264 core 152 r2851 ba24899
Encoding settings           : cabac=1 / ref=3 / deblock=1:0:0 / analyse=0x3:0x113 / me=hex / subme=7 / psy=1 / psy_rd=1.00:0.00 / mixed_ref=1 / me_range=16 / chroma_me=1 / trellis=1 / 8x8dct=1 / cqm=0 / deadzone=21,11 / fast_pskip=1 / chroma_qp_offset=-2 / threads=12 / lookahead_threads=2 / sliced_threads=0 / nr=0 / decimate=1 / interlaced=0 / bluray_compat=0 / constrained_intra=0 / bframes=3 / b_pyramid=2 / b_adapt=1 / b_bias=0 / direct=1 / weightb=1 / open_gop=0 / weightp=2 / keyint=240 / keyint_min=24 / scenecut=40 / intra_refresh=0 / rc_lookahead=40 / rc=2pass / mbtree=1 / bitrate=1024 / ratetol=1.0 / qcomp=0.60 / qpmin=0 / qpmax=69 / qpstep=4 / cplxblur=20.0 / qblur=0.5 / ip_ratio=1.40 / aq=1:1.00
Default                     : Yes
Forced                      : No

Audio #1
ID                          : 2
Format                      : AC-3
Format/Info                 : Audio Coding 3
Format settings, Endianness : Big
Codec ID                    : A_AC3
Duration                    : 2 h 37 min
Bit rate mode               : Constant
Bit rate                    : 160 kb/s
Channel(s)                  : 6 channels
Channel positions           : Front: L C R, Side: L R, LFE
Sampling rate               : 44.1 kHz
Frame rate                  : 28.711 FPS (1536 SPF)
Bit depth                   : 16 bits
Compression mode            : Lossy
Stream size                 : 180 MiB (11%)
Language                    : Tamil
Service kind                : Complete Main
Default                     : No
Forced                      : No

Audio #2
ID                          : 4
Format                      : AAC
Format/Info                 : Advanced Audio Codec
Format profile              : LC
Codec ID                    : A_AAC
Duration                    : 2 h 37 min
Bit rate                    : 256 kb/s
Channel(s)                  : 2 channels
Channel positions           : Front: L R
Sampling rate               : 44.1 kHz
Frame rate                  : 43.066 FPS (1024 SPF)
Compression mode            : Lossy
Stream size                 : 288 MiB (18%)
Language                    : Hindi
Default                     : Yes
Forced                      : Yes

Text
ID                          : 3
Format                      : UTF-8
Codec ID                    : S_TEXT/UTF8
Codec ID/Info               : UTF-8 Plain Text
Duration                    : 2 h 30 min
Bit rate                    : 36 b/s
Count of elements           : 927
Stream size                 : 40.5 KiB (0%)
Language                    : English
Default                     : Yes
Forced                      : Yes

Menu
00:00:00.000                : en:Chapter 01
00:14:36.500                : en:Chapter 02
00:18:34.000                : en:Chapter 03
00:34:51.000                : en:Chapter 04
00:39:21.500                : en:Chapter 05
01:19:47.600                : en:Chapter 06
01:24:31.500                : en:Chapter 07
02:31:00.000                : en:Chapter 08
02:34:23.000                : en:Chapter 09



Kaththi (2014) 720p HDRip x264 ESub [Dual Audio][Tamil+Hindi] - Team IcTv ExclusiveKaththi (2014) 720p HDRip x264 ESub [Dual Audio][Tamil+Hindi] - Team IcTv ExclusiveKaththi (2014) 720p HDRip x264 ESub [Dual Audio][Tamil+Hindi] - Team IcTv ExclusiveKaththi (2014) 720p HDRip x264 ESub [Dual Audio][Tamil+Hindi] - Team IcTv ExclusiveKaththi (2014) 720p HDRip x264 ESub [Dual Audio][Tamil+Hindi] - Team IcTv ExclusiveKaththi (2014) 720p HDRip x264 ESub [Dual Audio][Tamil+Hindi] - Team IcTv ExclusiveKaththi (2014) 720p HDRip x264 ESub [Dual Audio][Tamil+Hindi] - Team IcTv ExclusiveKaththi (2014) 720p HDRip x264 ESub [Dual Audio][Tamil+Hindi] - Team IcTv ExclusiveKaththi (2014) 720p HDRip x264 ESub [Dual Audio][Tamil+Hindi] - Team IcTv ExclusiveKaththi (2014) 720p HDRip x264 ESub [Dual Audio][Tamil+Hindi] - Team IcTv ExclusiveKaththi (2014) 720p HDRip x264 ESub [Dual Audio][Tamil+Hindi] - Team IcTv ExclusiveKaththi (2014) 720p HDRip x264 ESub [Dual Audio][Tamil+Hindi] - Team IcTv Exclusive

SINGLE DIRECT FAST LINKS

http://www.heroupload.com/ebde31cd9027dc79/Kaththi.2014.720p.Uncut.HDRip.x264.ESubs.Dual.Audio.Tamil.DD5.1+Hindi.DD2.0.Team.IcTv.Exclusive.mkv



Tags: Kaththi

Comments:

Dear visitor, you went to the site as unregistered user
We encourage you to create an account or enter the site under your name

Add comment

Name:*
E-Mail:*
Text:
Bold Italic Underline Strike | Align left Center Align right | Insert smilies Insert link URLInsert protected URL Select color | Add Hidden Text Insert Quote Convert selected text from selection to Cyrillic (Russian) alphabet Insert spoiler
Enter the code: *

Create an account

Partner Site

Advertising