» » Lucknow Central (2017) 1080p - BluRay - x264 - DTS 5.1 - Esubs-Team Jio Exclusive

Lucknow Central (2017) 1080p - BluRay - x264 - DTS 5.1 - Esubs-Team Jio Exclusive

Lucknow Central (2017) 1080p - BluRay - x264 - DTS 5.1 - Esubs-Team Jio Exclusive






Format                      : Matroska
Format version              : Version 4 / Version 2
File size                   : 7.46 GiB
Duration                    : 2 h 24 min
Overall bit rate            : 7 371 kb/s
Encoded date                : UTC 2017-12-14 05:38:19
Writing application         : mkvmerge v18.0.0 ('Apricity') 32-bit
Writing library             : libebml v1.3.5 + libmatroska v1.4.8

Video
ID                          : 1
Format                      : AVC
Format/Info                 : Advanced Video Codec
Format profile              : High@L4
Format settings             : CABAC / 5 Ref Frames
Format settings, CABAC      : Yes
Format settings, ReFrames   : 5 frames
Codec ID                    : V_MPEG4/ISO/AVC
Duration                    : 2 h 24 min
Bit rate                    : 3 088 kb/s
Width                       : 1 920 pixels
Height                      : 816 pixels
Display aspect ratio        : 2.35:1
Frame rate mode             : Constant
Frame rate                  : 24.000 FPS
Color space                 : YUV
Chroma subsampling          : 4:2:0
Bit depth                   : 8 bits
Scan type                   : Progressive
Bits/(Pixel*Frame)          : 0.082
Stream size                 : 3.12 GiB (42%)
Writing library             : x264 core 148 r2708 86b7198

Default                     : Yes
Forced                      : No
Color range                 : Limited
Color primaries             : BT.709
Transfer characteristics    : BT.709
Matrix coefficients         : BT.709

Audio
ID                          : 2
Format                      : DTS
Format/Info                 : Digital Theater Systems
Format profile              : MA / Core
Codec ID                    : A_DTS
Duration                    : 2 h 24 min
Bit rate mode               : Variable / Constant
Bit rate                    : 4 261 kb/s / 1 509 kb/s
Channel(s)                  : 6 channels
Channel positions           : Front: L C R, Side: L R, LFE
Sampling rate               : 48.0 kHz
Frame rate                  : 93.750 FPS (512 SPF)
Bit depth                   : 24 bits
Compression mode            : Lossless / Lossy
Stream size                 : 4.31 GiB (58%)
Language                    : Hindi
Default                     : Yes
Forced                      : No

Text
ID                          : 3
Format                      : PGS
Muxing mode                 : zlib
Codec ID                    : S_HDMV/PGS
Codec ID/Info               : Picture based subtitle format used on BDs/HD-DVDs
Duration                    : 2 h 20 min
Bit rate                    : 29.3 kb/s
Count of elements           : 2932
Stream size                 : 29.5 MiB (0%)
Language                    : English
Default                     : Yes
Forced                      : No


Lucknow Central (2017) 1080p - BluRay - x264 - DTS 5.1 - Esubs-Team Jio ExclusiveLucknow Central (2017) 1080p - BluRay - x264 - DTS 5.1 - Esubs-Team Jio ExclusiveLucknow Central (2017) 1080p - BluRay - x264 - DTS 5.1 - Esubs-Team Jio ExclusiveLucknow Central (2017) 1080p - BluRay - x264 - DTS 5.1 - Esubs-Team Jio ExclusiveLucknow Central (2017) 1080p - BluRay - x264 - DTS 5.1 - Esubs-Team Jio ExclusiveLucknow Central (2017) 1080p - BluRay - x264 - DTS 5.1 - Esubs-Team Jio ExclusiveLucknow Central (2017) 1080p - BluRay - x264 - DTS 5.1 - Esubs-Team Jio ExclusiveLucknow Central (2017) 1080p - BluRay - x264 - DTS 5.1 - Esubs-Team Jio ExclusiveLucknow Central (2017) 1080p - BluRay - x264 - DTS 5.1 - Esubs-Team Jio ExclusiveLucknow Central (2017) 1080p - BluRay - x264 - DTS 5.1 - Esubs-Team Jio ExclusiveLucknow Central (2017) 1080p - BluRay - x264 - DTS 5.1 - Esubs-Team Jio Exclusive

SINGLE DIRECT FAST LINKS

http://www.heroupload.com/ee668e76f83b3309/Lukcnow.Central.2017.1080p.BluRay.DTS.Esubs-Team.JIO.Exclusive.mkv


1GB LINKS



http://www.heroupload.com/9ebcd9fafaa88c2c/Lukcnow.Central.2017.1080p.BluRay.DTS.Esubs-Team.JIO.Exclusive.part1.rar
http://www.heroupload.com/4bf14db7aefd6b05/Lukcnow.Central.2017.1080p.BluRay.DTS.Esubs-Team.JIO.Exclusive.part2.rar
http://www.heroupload.com/680e5312266cdee8/Lukcnow.Central.2017.1080p.BluRay.DTS.Esubs-Team.JIO.Exclusive.part3.rar
http://www.heroupload.com/56f2339895f3a12a/Lukcnow.Central.2017.1080p.BluRay.DTS.Esubs-Team.JIO.Exclusive.part4.rar
http://www.heroupload.com/ebf35baa84631d24/Lukcnow.Central.2017.1080p.BluRay.DTS.Esubs-Team.JIO.Exclusive.part5.rar
http://www.heroupload.com/1d624a85f04ed72c/Lukcnow.Central.2017.1080p.BluRay.DTS.Esubs-Team.JIO.Exclusive.part6.rar
http://www.heroupload.com/9904a79e5f50066c/Lukcnow.Central.2017.1080p.BluRay.DTS.Esubs-Team.JIO.Exclusive.part7.rar
http://www.heroupload.com/b494405663dc15a0/Lukcnow.Central.2017.1080p.BluRay.DTS.Esubs-Team.JIO.Exclusive.part8.rar


Tags: Lucknow

Comments:

Dear visitor, you went to the site as unregistered user
We encourage you to create an account or enter the site under your name

Add comment

Name:*
E-Mail:*
Text:
Bold Italic Underline Strike | Align left Center Align right | Insert smilies Insert link URLInsert protected URL Select color | Add Hidden Text Insert Quote Convert selected text from selection to Cyrillic (Russian) alphabet Insert spoiler
Enter the code: *

Create an account

Partner Site

Advertising