» » Fukrey Returns (2017) 720p - PreDVDRip - x264 - AC3 5.1-Exclusive

Fukrey Returns (2017) 720p - PreDVDRip - x264 - AC3 5.1-Exclusive

Fukrey Returns (2017) 720p - PreDVDRip - x264 - AC3 5.1-Exclusive








General
Format                                   : Matroska
Format version                           : Version 4 / Version 2
File size                                : 1.59 GiB
Duration                                 : 2 h 15 min
Overall bit rate                         : 1 688 kb/s

Video
ID                                       : 1
Format                                   : AVC
Format/Info                              : Advanced Video Codec
Format profile                           : Baseline@L3.1
Format settings                          : 1 Ref Frames
Format settings, CABAC                   : No
Format settings, RefFrames               : 1 frame
Codec ID                                 : V_MPEG4/ISO/AVC
Duration                                 : 2 h 15 min
Bit rate                                 : 1 495 kb/s
Width                                    : 1 280 pixels
Height                                   : 720 pixels
Display aspect ratio                     : 16:9
Frame rate mode                          : Constant
Frame rate                               : 25.000 FPS
Color space                              : YUV
Chroma subsampling                       : 4:2:0
Bit depth                                : 8 bits
Scan type                                : Progressive
Bits/(Pixel*Frame)                       : 0.065
Stream size                              : 1.41 GiB (89%)
Default                                  : Yes
Forced                                   : No
Color range                              : Limited

Audio
ID                                       : 2
Format                                   : AC-3
Format/Info                              : Audio Coding 3
Format settings, Endianness              : Big
Codec ID                                 : A_AC3
Duration                                 : 2 h 15 min
Bit rate mode                            : Constant
Bit rate                                 : 192 kb/s
Channel(s)                               : 6 channels
Channel positions                        : Front: L C R, Side: L R, LFE
Sampling rate                            : 48.0 kHz
Frame rate                               : 31.250 FPS (1536 SPF)
Bit depth                                : 16 bits
Compression mode                         : Lossy
Stream size                              : 186 MiB (11%)
Service kind                             : Complete Main
Default                                  : Yes
Forced                                   : No




Fukrey Returns (2017) 720p - PreDVDRip - x264 - AC3 5.1-Exclusive
Fukrey Returns (2017) 720p - PreDVDRip - x264 - AC3 5.1-Exclusive
Fukrey Returns (2017) 720p - PreDVDRip - x264 - AC3 5.1-Exclusive
Fukrey Returns (2017) 720p - PreDVDRip - x264 - AC3 5.1-Exclusive
Fukrey Returns (2017) 720p - PreDVDRip - x264 - AC3 5.1-Exclusive
Fukrey Returns (2017) 720p - PreDVDRip - x264 - AC3 5.1-Exclusive
Fukrey Returns (2017) 720p - PreDVDRip - x264 - AC3 5.1-Exclusive
Fukrey Returns (2017) 720p - PreDVDRip - x264 - AC3 5.1-Exclusive
Fukrey Returns (2017) 720p - PreDVDRip - x264 - AC3 5.1-Exclusive
Fukrey Returns (2017) 720p - PreDVDRip - x264 - AC3 5.1-Exclusive
Fukrey Returns (2017) 720p - PreDVDRip - x264 - AC3 5.1-Exclusive


SINGLE DIRECT FAST LINKS


http://www.heroupload.com/9ab048966c9a84aa/Fukrey.Returns.2017.720p.PreDVDRip.x264.AC3.5.1-Exclusive.mkv



Tags: Fukrey

Comments:

Dear visitor, you went to the site as unregistered user
We encourage you to create an account or enter the site under your name

Add comment

Name:*
E-Mail:*
Text:
Bold Italic Underline Strike | Align left Center Align right | Insert smilies Insert link URLInsert protected URL Select color | Add Hidden Text Insert Quote Convert selected text from selection to Cyrillic (Russian) alphabet Insert spoiler
Enter the code: *

Create an account

Partner Site

Advertising