» » Surya - The Brave Soldier (2018) UNCUT 720p HDRip x264 [Dual Audio][Hindi+Telugu] DM

Surya - The Brave Soldier (2018) UNCUT 720p HDRip x264 [Dual Audio][Hindi+Telugu] DM

Surya - The Brave Soldier (2018) UNCUT 720p HDRip x264 [Dual Audio][Hindi+Telugu] DM





General
Format                      : Matroska
Format version              : Version 4 / Version 2
File size                   : 1.67 GiB
Duration                    : 2 h 36 min
Overall bit rate            : 1 526 kb/s

Video
ID                          : 1
Format                      : AVC
Format/Info                 : Advanced Video Codec
Format profile              : High@L4.1
Format settings             : CABAC / 12 Ref Frames
Format settings, CABAC      : Yes
Format settings, ReFrames   : 12 frames
Codec ID                    : V_MPEG4/ISO/AVC
Duration                    : 2 h 36 min
Bit rate                    : 1 300 kb/s
Width                       : 1 280 pixels
Height                      : 544 pixels
Display aspect ratio        : 2.35:1
Frame rate mode             : Constant
Frame rate                  : 23.976 (24000/1001) FPS
Color space                 : YUV
Chroma subsampling          : 4:2:0
Bit depth                   : 8 bits
Scan type                   : Progressive
Bits/(Pixel*Frame)          : 0.078
Stream size                 : 1.42 GiB (85%)

Audio #1
ID                          : 2
Format                      : MPEG Audio
Format version              : Version 1
Format profile              : Layer 3
Format settings             : Joint stereo / MS Stereo
Codec ID                    : A_MPEG/L3
Codec ID/Hint               : MP3
Duration                    : 2 h 36 min
Bit rate mode               : Constant
Bit rate                    : 160 kb/s
Channel(s)                  : 2 channels
Sampling rate               : 48.0 kHz
Frame rate                  : 41.667 FPS (1152 SPF)
Compression mode            : Lossy
Delay relative to video     : -105 ms
Stream size                 : 179 MiB (10%)
Title                       : DesireMovies.trade
Writing library             : LAME3.98.2
Language                    : Hindi
Default                     : Yes
Forced                      : Yes

Audio #2
ID                          : 3
Format                      : AAC
Format/Info                 : Advanced Audio Codec
Format profile              : HE-AAC / LC
Format settings             : NBC
Codec ID                    : A_AAC-5
Duration                    : 2 h 36 min
Bit rate                    : 64.0 kb/s
Channel(s)                  : 2 channels
Channel positions           : Front: L R
Sampling rate               : 48.0 kHz / 24.0 kHz
Frame rate                  : 23.438 FPS (1024 SPF)
Compression mode            : Lossy
Delay relative to video     : -105 ms
Stream size                 : 71.8 MiB (4%)
Title                       : Stereo
Language                    : Telugu
Default                     : No
Forced                      : No





Surya - The Brave Soldier (2018) UNCUT 720p HDRip x264 [Dual Audio][Hindi+Telugu] DM
Surya - The Brave Soldier (2018) UNCUT 720p HDRip x264 [Dual Audio][Hindi+Telugu] DM
Surya - The Brave Soldier (2018) UNCUT 720p HDRip x264 [Dual Audio][Hindi+Telugu] DM
Surya - The Brave Soldier (2018) UNCUT 720p HDRip x264 [Dual Audio][Hindi+Telugu] DM
Surya - The Brave Soldier (2018) UNCUT 720p HDRip x264 [Dual Audio][Hindi+Telugu] DM
Surya - The Brave Soldier (2018) UNCUT 720p HDRip x264 [Dual Audio][Hindi+Telugu] DM
Surya - The Brave Soldier (2018) UNCUT 720p HDRip x264 [Dual Audio][Hindi+Telugu] DM
Surya - The Brave Soldier (2018) UNCUT 720p HDRip x264 [Dual Audio][Hindi+Telugu] DM
Surya - The Brave Soldier (2018) UNCUT 720p HDRip x264 [Dual Audio][Hindi+Telugu] DM
Surya - The Brave Soldier (2018) UNCUT 720p HDRip x264 [Dual Audio][Hindi+Telugu] DM
Surya - The Brave Soldier (2018) UNCUT 720p HDRip x264 [Dual Audio][Hindi+Telugu] DM

SINGLE DIRECT FAST LINKS

http://www.heroupload.us/5a7fc1f591f2a937/Naa.Peru.Surya.Naa.Illu.India.2018.UNCUT.720p.HDRip.x264.Dual.Audio.Hindi.Org.2.0+Telugu.2.0.mkv


http://filefloater.com/30Vw/Naa.Peru.Surya.Naa.Illu.India.2018.UNCUT.720p.HDRip.x264.Dual.Audio.Hindi.Org.2.0+Telugu.2.0.mkv


Buy Premium From My Links & Support Me

Tags: Surya

Comments:

Dear visitor, you went to the site as unregistered user
We encourage you to create an account or enter the site under your name

Add comment

Name:*
E-Mail:*
Text:
Bold Italic Underline Strike | Align left Center Align right | Insert smilies Insert link URLInsert protected URL Select color | Add Hidden Text Insert Quote Convert selected text from selection to Cyrillic (Russian) alphabet Insert spoiler
Enter the code: *

Create an account

Advertising