» » Suriya Ka Yaarana (Vaaranam Aayiram) (2018) Hindi - 720p - WEB-HD - AVC - AAC-CineKor

Suriya Ka Yaarana (Vaaranam Aayiram) (2018) Hindi - 720p - WEB-HD - AVC - AAC-CineKor

Suriya Ka Yaarana (Vaaranam Aayiram) (2018) Hindi - 720p - WEB-HD - AVC - AAC-CineKor





Format                      : MPEG-4
Format profile              : Base Media / Version 2
Codec ID                    : mp42 (isom/mp42)
File size                   : 1.16 GiB
Duration                    : 2 h 44 min
Overall bit rate mode       : Variable
Overall bit rate            : 1 008 kb/s
Encoded date                : UTC 2018-09-15 01:22:09
Tagged date                 : UTC 2018-09-15 01:22:09
gsst                        : 0
gstd                        : 9860307

Video
ID                          : 1
Format                      : AVC
Format/Info                 : Advanced Video Codec
Format profile              : Main@L3.1
Format settings, CABAC      : Yes
Format settings, RefFrames  : 3 frames
Codec ID                    : avc1
Codec ID/Info               : Advanced Video Coding
Duration                    : 2 h 44 min
Bit rate                    : 879 kb/s
Width                       : 1 280 pixels
Height                      : 720 pixels
Display aspect ratio        : 16:9
Frame rate mode             : Constant
Frame rate                  : 25.000 FPS
Color space                 : YUV
Chroma subsampling          : 4:2:0
Bit depth                   : 8 bits
Scan type                   : Progressive
Bits/(Pixel*Frame)          : 0.038
Stream size                 : 1.01 GiB (87%)
Title                       : ISO Media file produced by Google Inc. Created on: 09/14/2018.
Encoded date                : UTC 2018-09-15 01:22:09
Tagged date                 : UTC 2018-09-15 01:22:09
Color range                 : Limited
Color primaries             : BT.709
Transfer characteristics    : BT.709
Matrix coefficients         : BT.709

Audio
ID                          : 2
Format                      : AAC
Format/Info                 : Advanced Audio Codec
Format profile              : LC
Codec ID                    : 40
Duration                    : 2 h 44 min
Bit rate mode               : Variable
Bit rate                    : 126 kb/s
Channel(s)                  : 2 channels
Channel positions           : Front: L R
Sampling rate               : 44.1 kHz
Frame rate                  : 43.066 FPS (1024 SPF)
Compression mode            : Lossy
Stream size                 : 148 MiB (12%)
Title                       : ISO Media file produced by Google Inc. Created on: 09/14/2018.
Language                    : English
Encoded date                : UTC 2018-09-15 01:22:09
Tagged date                 : UTC 2018-09-15 01:22:09


Suriya Ka Yaarana (Vaaranam Aayiram) (2018) Hindi - 720p - WEB-HD - AVC - AAC-CineKorSuriya Ka Yaarana (Vaaranam Aayiram) (2018) Hindi - 720p - WEB-HD - AVC - AAC-CineKorSuriya Ka Yaarana (Vaaranam Aayiram) (2018) Hindi - 720p - WEB-HD - AVC - AAC-CineKorSuriya Ka Yaarana (Vaaranam Aayiram) (2018) Hindi - 720p - WEB-HD - AVC - AAC-CineKorSuriya Ka Yaarana (Vaaranam Aayiram) (2018) Hindi - 720p - WEB-HD - AVC - AAC-CineKor

SINGLE DIRECT FAST LINKS
http://www.heroupload.us/2e23dd939ee7e4fa/Suriya.Ka.Yaarana.Hindi.Dubbed.2018.720p.WEB-HD.AVC.AAC-CineKorn.mp4



http://filefloater.com/30Sy/Suriya.Ka.Yaarana.Hindi.Dubbed.2018.720p.WEB-HD.AVC.AAC-CineKorn.mp4




Buy Premium From My Links & Support Me

Tags: Suriya

Comments:

Dear visitor, you went to the site as unregistered user
We encourage you to create an account or enter the site under your name

njmassage.info

21 September 2018 06:09

What I truly think most about is health matters.
On my own, I signed up for mags oriented toward this subject, and I continue up to date about the most recent wellness studies.
Just how is this relevant? I feel there is no more crucial use for my hours.
Furthermore, this web log entry seems as though it's deserving my time to check out again.
I dig through hundreds or even more of sites weekly.
Honestly, my spine always hurts and I need a different diversion.
lol Anyway, I think if almost everyone published about their place in life,
and did it clearly, we'd have a more interesting world. http://njmassage.info/40days

Add comment

Name:*
E-Mail:*
Text:
Bold Italic Underline Strike | Align left Center Align right | Insert smilies Insert link URLInsert protected URL Select color | Add Hidden Text Insert Quote Convert selected text from selection to Cyrillic (Russian) alphabet Insert spoiler
Enter the code: *

Create an account

Advertising