» » Genius (2018) 1080p - HDRip - x264 - MP3 - HC-ESubs-AF Exclusive

Genius (2018) 1080p - HDRip - x264 - MP3 - HC-ESubs-AF Exclusive

Genius (2018) 1080p - HDRip - x264 - MP3 - HC-ESubs-AF Exclusive





Format                      : Matroska
Format version              : Version 4 / Version 2
File size                   : 3.03 GiB
Duration                    : 2 h 26 min
Overall bit rate            : 2 955 kb/s
Encoded date                : UTC 2018-09-12 09:05:44
Writing application         : mkvmerge v24.0.0 ('Beyond The Pale') 64-bit
Writing library             : libebml v1.3.6 + libmatroska v1.4.9

Video
ID                          : 1
Format                      : AVC
Format/Info                 : Advanced Video Codec
Format profile              : High@L4.1
Format settings, CABAC      : Yes
Format settings, RefFrames  : 4 frames
Codec ID                    : V_MPEG4/ISO/AVC
Duration                    : 2 h 26 min
Bit rate                    : 2 760 kb/s
Width                       : 1 920 pixels
Height                      : 908 pixels
Display aspect ratio        : 2.111
Original display aspect rat : 2.112
Frame rate mode             : Constant
Frame rate                  : 60.000 FPS
Color space                 : YUV
Chroma subsampling          : 4:2:0
Bit depth                   : 8 bits
Scan type                   : Progressive
Bits/(Pixel*Frame)          : 0.026
Stream size                 : 2.83 GiB (93%)
Writing library             : x264 core 148 r2708 86b7198
Encoding settings           : cabac=1 / ref=4 / deblock=1:0:0 / analyse=0x3:0x133 / me=umh / subme=9 / psy=1 / psy_rd=1.00:0.00 / mixed_ref=1 / me_range=16 / chroma_me=1 / trellis=2 / 8x8dct=1 / cqm=0 / deadzone=21,11 / fast_pskip=1 / chroma_qp_offset=-2 / threads=28 / lookahead_threads=2 / sliced_threads=0 / nr=0 / decimate=1 / interlaced=0 / bluray_compat=0 / constrained_intra=0 / bframes=3 / b_pyramid=2 / b_adapt=2 / b_bias=0 / direct=3 / weightb=1 / open_gop=0 / weightp=2 / keyint=600 / keyint_min=60 / scenecut=40 / intra_refresh=0 / rc_lookahead=60 / rc=2pass / mbtree=1 / bitrate=2760 / ratetol=1.0 / qcomp=0.60 / qpmin=0 / qpmax=69 / qpstep=4 / cplxblur=20.0 / qblur=0.5 / vbv_maxrate=62500 / vbv_bufsize=78125 / nal_hrd=none / filler=0 / ip_ratio=1.40 / aq=1:1.00
Language                    : Hindi
Default                     : Yes
Forced                      : No
Color range                 : Limited
Color primaries             : BT.709
Transfer characteristics    : BT.709
Matrix coefficients         : BT.709

Audio
ID                          : 2
Format                      : MPEG Audio
Format version              : Version 1
Format profile              : Layer 3
Mode                        : Joint stereo
Mode extension              : MS Stereo
Codec ID                    : A_MPEG/L3
Codec ID/Hint               : MP3
Duration                    : 2 h 26 min
Bit rate mode               : Constant
Bit rate                    : 192 kb/s
Channel(s)                  : 2 channels
Sampling rate               : 48.0 kHz
Frame rate                  : 41.667 FPS (1152 SPF)
Compression mode            : Lossy
Stream size                 : 201 MiB (6%)
Language                    : Hindi
Default                     : Yes
Forced                      : No



Genius (2018) 1080p - HDRip - x264 - MP3 - HC-ESubs-AF ExclusiveGenius (2018) 1080p - HDRip - x264 - MP3 - HC-ESubs-AF ExclusiveGenius (2018) 1080p - HDRip - x264 - MP3 - HC-ESubs-AF ExclusiveGenius (2018) 1080p - HDRip - x264 - MP3 - HC-ESubs-AF ExclusiveGenius (2018) 1080p - HDRip - x264 - MP3 - HC-ESubs-AF Exclusive

SINGLE DIRECT FAST LINKS
http://www.heroupload.us/d79c3d27281cc79c/Genius.2018.Hindi.1080p.HDRip.x264.ESubs-Exclusive.mkv


http://filefloater.com/2AOt/Genius.2018.Hindi.1080p.HDRip.x264.ESubs-Exclusive.mkv

700MB LINKS

http://www.heroupload.us/9f630001f7341eea/Genius.2018.Hindi.1080p.HDRip.x264.ESubs-Exclusive.part1.rar
http://www.heroupload.us/e3b8c0e1f4045c0c/Genius.2018.Hindi.1080p.HDRip.x264.ESubs-Exclusive.part2.rar
http://www.heroupload.us/01eab308f00194b0/Genius.2018.Hindi.1080p.HDRip.x264.ESubs-Exclusive.part3.rar
http://www.heroupload.us/1aa661a6d14c67a8/Genius.2018.Hindi.1080p.HDRip.x264.ESubs-Exclusive.part4.rar
http://www.heroupload.us/7b784b140ac66342/Genius.2018.Hindi.1080p.HDRip.x264.ESubs-Exclusive.part5.rar



http://filefloater.com/2AOu/Genius.2018.Hindi.1080p.HDRip.x264.ESubs-Exclusive.part1.rar
http://filefloater.com/2AOv/Genius.2018.Hindi.1080p.HDRip.x264.ESubs-Exclusive.part2.rar
http://filefloater.com/2AOw/Genius.2018.Hindi.1080p.HDRip.x264.ESubs-Exclusive.part3.rar
http://filefloater.com/2AOx/Genius.2018.Hindi.1080p.HDRip.x264.ESubs-Exclusive.part4.rar
http://filefloater.com/2AOy/Genius.2018.Hindi.1080p.HDRip.x264.ESubs-Exclusive.part5.rar


Buy Premium From My Links & Support Me

Tags: Genius

Comments:

Dear visitor, you went to the site as unregistered user
We encourage you to create an account or enter the site under your name

Add comment

Name:*
E-Mail:*
Text:
Bold Italic Underline Strike | Align left Center Align right | Insert smilies Insert link URLInsert protected URL Select color | Add Hidden Text Insert Quote Convert selected text from selection to Cyrillic (Russian) alphabet Insert spoiler
Enter the code: *

Create an account

Advertising