» » Judwaa 2 (2017) 720p - DVDscr - x264 - AC3 5.1 - DUS Exclusive

Judwaa 2 (2017) 720p - DVDscr - x264 - AC3 5.1 - DUS Exclusive

Judwaa 2 (2017) 720p - DVDscr - x264 - AC3 5.1 - DUS Exclusive








Format                      : Matroska
Format version              : Version 2
File size                   : 2.19 GiB
Duration                    : 2 h 21 min
Overall bit rate            : 2 211 kb/s
Encoded date                : UTC 2017-09-30 07:22:56
Writing application         : mkvmerge v7.0.0 ('Where We Going') 32bit built on Jun  9 2014 15:08:34
Writing library             : libebml v1.3.0 + libmatroska v1.4.1

Video
ID                          : 1
Format                      : AVC
Format/Info                 : Advanced Video Codec
Format profile              : High@L3.1
Format settings             : CABAC / 4 Ref Frames
Format settings, CABAC      : Yes
Format settings, RefFrames  : 4 frames
Codec ID                    : V_MPEG4/ISO/AVC
Duration                    : 2 h 21 min
Bit rate                    : 1 833 kb/s
Width                       : 1 268 pixels
Height                      : 530 pixels
Display aspect ratio        : 2.40:1
Frame rate mode             : Constant
Frame rate                  : 23.976 (24000/1001) FPS
Color space                 : YUV
Chroma subsampling          : 4:2:0
Bit depth                   : 8 bits
Scan type                   : Progressive
Bits/(Pixel*Frame)          : 0.114
Stream size                 : 1.81 GiB (83%)
Writing library             : x264 core 142 r2431 ac76440
Encoding settings           : cabac=1 / ref=3 / deblock=1:0:0 / analyse=0x3:0x113 / me=hex / subme=7 / psy=1 / psy_rd=1.00:0.00 / mixed_ref=1 / me_range=16 / chroma_me=1 / trellis=1 / 8x8dct=1 / cqm=0 / deadzone=21,11 / fast_pskip=1 / chroma_qp_offset=-2 / threads=1 / lookahead_threads=1 / sliced_threads=0 / nr=0 / decimate=1 / interlaced=0 / bluray_compat=0 / constrained_intra=0 / bframes=3 / b_pyramid=2 / b_adapt=1 / b_bias=0 / direct=1 / weightb=1 / open_gop=0 / weightp=2 / keyint=240 / keyint_min=23 / scenecut=40 / intra_refresh=0 / rc_lookahead=40 / rc=abr / mbtree=1 / bitrate=1833 / ratetol=1.0 / qcomp=0.60 / qpmin=0 / qpmax=69 / qpstep=4 / ip_ratio=1.40 / aq=1:1.00
Default                     : Yes
Forced                      : No

Audio
ID                          : 2
Format                      : AC-3
Format/Info                 : Audio Coding 3
Format settings, Endianness : Big
Codec ID                    : A_AC3
Duration                    : 2 h 21 min
Bit rate mode               : Constant
Bit rate                    : 384 kb/s
Channel(s)                  : 6 channels
Channel positions           : Front: L C R, Side: L R, LFE
Sampling rate               : 48.0 kHz
Frame rate                  : 31.250 FPS (1536 SPF)
Bit depth                   : 16 bits
Compression mode            : Lossy
Stream size                 : 389 MiB (17%)
Service kind                : Complete Main
Default                     : Yes
Forced                      : No




Judwaa 2 (2017) 720p - DVDscr - x264 - AC3 5.1 - DUS Exclusive
Judwaa 2 (2017) 720p - DVDscr - x264 - AC3 5.1 - DUS Exclusive
Judwaa 2 (2017) 720p - DVDscr - x264 - AC3 5.1 - DUS Exclusive
Judwaa 2 (2017) 720p - DVDscr - x264 - AC3 5.1 - DUS Exclusive
Judwaa 2 (2017) 720p - DVDscr - x264 - AC3 5.1 - DUS Exclusive
Judwaa 2 (2017) 720p - DVDscr - x264 - AC3 5.1 - DUS Exclusive
Judwaa 2 (2017) 720p - DVDscr - x264 - AC3 5.1 - DUS Exclusive
Judwaa 2 (2017) 720p - DVDscr - x264 - AC3 5.1 - DUS Exclusive


SINGLE DIRECT FAST LINKS
http://www.heroupload.com/86557d7d7d6f0f55/Judwaa.2.2017.720p.DVDSCR.x264.DD5.1-DUS.mkv


http://filefloater.com/3m0/Judwaa.2.2017.720p.DVDSCR.x264.DD5.1-DUS.mkv

700MB LINKS


http://www.heroupload.com/7c9aef816edf46cc/Judwaa.2.2017.720p.DVDSCR.x264.DD5.1-DUS.part1.rar
http://www.heroupload.com/0125106dee02dbfd/Judwaa.2.2017.720p.DVDSCR.x264.DD5.1-DUS.part2.rar
http://www.heroupload.com/226dda9635b45e19/Judwaa.2.2017.720p.DVDSCR.x264.DD5.1-DUS.part3.rar
http://www.heroupload.com/3e5034c98bf2fb2d/Judwaa.2.2017.720p.DVDSCR.x264.DD5.1-DUS.part4.rar



http://filefloater.com/3m1/Judwaa.2.2017.720p.DVDSCR.x264.DD5.1-DUS.part1.rar
http://filefloater.com/3m2/Judwaa.2.2017.720p.DVDSCR.x264.DD5.1-DUS.part2.rar
http://filefloater.com/3m3/Judwaa.2.2017.720p.DVDSCR.x264.DD5.1-DUS.part3.rar
http://filefloater.com/3m4/Judwaa.2.2017.720p.DVDSCR.x264.DD5.1-DUS.part4.rar


Comments:

Dear visitor, you went to the site as unregistered user
We encourage you to create an account or enter the site under your name

Add comment

Name:*
E-Mail:*
Text:
Bold Italic Underline Strike | Align left Center Align right | Insert smilies Insert link URLInsert protected URL Select color | Add Hidden Text Insert Quote Convert selected text from selection to Cyrillic (Russian) alphabet Insert spoiler
Enter the code: *

Create an account

Who's Online?

Module online =)

Advertising