» » Thodi Thodi Si Manmaaniyan (2017) 1080p - HDTV - x264 - AAC5.1-TeamTT Exclusive

Thodi Thodi Si Manmaaniyan (2017) 1080p - HDTV - x264 - AAC5.1-TeamTT Exclusive

Thodi Thodi Si Manmaaniyan (2017) 1080p - HDTV - x264 - AAC5.1-TeamTT Exclusive





Format                      : Matroska
Format version              : Version 4 / Version 2
File size                   : 5.62 GiB
Duration                    : 1 h 45 min
Overall bit rate            : 7 618 kb/s
Encoded date                : UTC 2018-09-03 08:59:18
Writing application         : mkvmerge v26.0.0 ('In The Game') 64-bit
Writing library             : libebml v1.3.6 + libmatroska v1.4.9

Video
ID                          : 1
Format                      : AVC
Format/Info                 : Advanced Video Codec
Format profile              : High@L4
Format settings, CABAC      : Yes
Format settings, RefFrames  : 4 frames
Codec ID                    : V_MPEG4/ISO/AVC
Duration                    : 1 h 45 min
Bit rate                    : 7 487 kb/s
Nominal bit rate            : 8 000 kb/s
Width                       : 1 920 pixels
Height                      : 1 080 pixels
Display aspect ratio        : 16:9
Frame rate mode             : Constant
Frame rate                  : 23.976 (24000/1001) FPS
Color space                 : YUV
Chroma subsampling          : 4:2:0
Bit depth                   : 8 bits
Scan type                   : Progressive
Bits/(Pixel*Frame)          : 0.151
Stream size                 : 5.52 GiB (98%)
Writing library             : x264 core 148 r2762 90a61ec
Encoding settings           : cabac=1 / ref=1 / deblock=1:0:0 / analyse=0x3:0x113 / me=hex / subme=2 / psy=1 / psy_rd=1.00:0.00 / mixed_ref=0 / me_range=16 / chroma_me=1 / trellis=0 / 8x8dct=1 / cqm=0 / deadzone=21,11 / fast_pskip=1 / chroma_qp_offset=0 / threads=12 / lookahead_threads=4 / sliced_threads=0 / nr=0 / decimate=1 / interlaced=0 / bluray_compat=0 / constrained_intra=0 / bframes=3 / b_pyramid=2 / b_adapt=1 / b_bias=0 / direct=1 / weightb=1 / open_gop=0 / weightp=1 / keyint=250 / keyint_min=23 / scenecut=40 / intra_refresh=0 / rc_lookahead=10 / rc=cbr / mbtree=1 / bitrate=8000 / ratetol=1.0 / qcomp=0.60 / qpmin=0 / qpmax=69 / qpstep=4 / vbv_maxrate=8000 / vbv_bufsize=8000 / nal_hrd=none / filler=1 / ip_ratio=1.40 / aq=1:1.00
Default                     : Yes
Forced                      : No

Audio
ID                          : 2
Format                      : AAC
Format/Info                 : Advanced Audio Codec
Format profile              : HE-AAC / LC
Codec ID                    : A_AAC
Duration                    : 1 h 45 min
Bit rate                    : 128 kb/s
Channel(s)                  : 6 channels
Channel positions           : Front: L C R, Side: L R, LFE
Sampling rate               : 48.0 kHz / 24.0 kHz
Frame rate                  : 23.438 FPS (1024 SPF)
Compression mode            : Lossy
Stream size                 : 96.6 MiB (2%)
Title                       : Track1
Default                     : Yes
Forced                      : No


Thodi Thodi Si Manmaaniyan (2017) 1080p - HDTV - x264 - AAC5.1-TeamTT ExclusiveThodi Thodi Si Manmaaniyan (2017) 1080p - HDTV - x264 - AAC5.1-TeamTT ExclusiveThodi Thodi Si Manmaaniyan (2017) 1080p - HDTV - x264 - AAC5.1-TeamTT ExclusiveThodi Thodi Si Manmaaniyan (2017) 1080p - HDTV - x264 - AAC5.1-TeamTT ExclusiveThodi Thodi Si Manmaaniyan (2017) 1080p - HDTV - x264 - AAC5.1-TeamTT ExclusiveThodi Thodi Si Manmaaniyan (2017) 1080p - HDTV - x264 - AAC5.1-TeamTT ExclusiveThodi Thodi Si Manmaaniyan (2017) 1080p - HDTV - x264 - AAC5.1-TeamTT ExclusiveThodi Thodi Si Manmaaniyan (2017) 1080p - HDTV - x264 - AAC5.1-TeamTT Exclusive


SINGLE DIRECT FAST LINKS

http://www.heroupload.us/4a2f206fad2dfd7b/Thodi.Thodi.Si.Manmaaniyan.1080p.HDTV.AAC.5.1-TeamTelly.Exclusive.mkv


1GB LINKS

http://www.heroupload.us/552560468c3354be/Thodi.Thodi.Si.Manmaaniyan.1080p.HDTV.AAC.5.1-TeamTelly.Exclusive.part1.rar
http://www.heroupload.us/dcebb17ed2fc72fd/Thodi.Thodi.Si.Manmaaniyan.1080p.HDTV.AAC.5.1-TeamTelly.Exclusive.part2.rar
http://www.heroupload.us/90525c2f0a6d5e37/Thodi.Thodi.Si.Manmaaniyan.1080p.HDTV.AAC.5.1-TeamTelly.Exclusive.part3.rar
http://www.heroupload.us/073cc253f85cf378/Thodi.Thodi.Si.Manmaaniyan.1080p.HDTV.AAC.5.1-TeamTelly.Exclusive.part4.rar
http://www.heroupload.us/e7b8e35ce4efef30/Thodi.Thodi.Si.Manmaaniyan.1080p.HDTV.AAC.5.1-TeamTelly.Exclusive.part5.rar
http://www.heroupload.us/398983afe05eeeaa/Thodi.Thodi.Si.Manmaaniyan.1080p.HDTV.AAC.5.1-TeamTelly.Exclusive.part6.rar



http://filefloater.com/2aEr/Thodi.Thodi.Si.Manmaaniyan.1080p.HDTV.AAC.5.1-TeamTelly.Exclusive.part1.rar
http://filefloater.com/2aEs/Thodi.Thodi.Si.Manmaaniyan.1080p.HDTV.AAC.5.1-TeamTelly.Exclusive.part2.rar
http://filefloater.com/2aEt/Thodi.Thodi.Si.Manmaaniyan.1080p.HDTV.AAC.5.1-TeamTelly.Exclusive.part3.rar
http://filefloater.com/2AFo/Thodi.Thodi.Si.Manmaaniyan.1080p.HDTV.AAC.5.1-TeamTelly.Exclusive.part4.rar
http://filefloater.com/2AFp/Thodi.Thodi.Si.Manmaaniyan.1080p.HDTV.AAC.5.1-TeamTelly.Exclusive.part5.rar
http://filefloater.com/2AFq/Thodi.Thodi.Si.Manmaaniyan.1080p.HDTV.AAC.5.1-TeamTelly.Exclusive.part6.rar



Buy Premium From My Links & Support Me

Tags: Thodi

Comments:

Dear visitor, you went to the site as unregistered user
We encourage you to create an account or enter the site under your name

MK Bags Outlet

5 September 2018 04:58

This bag is available in three colors, one is Mushroom glazed goat leather, one is blueberry waxed Nubuck leather and the last one is black soft spongy leather.(Michael Kors Handbags Outlet Clearance)
With one main compartment, one internal zip pocket and one internal slip pocket and internal Mulberry fob, the bag can be used conveniently.(MK Bags Outlet)
The bag features magnetic closure and external stitch detailing.(Fashion)
Such a designer bag is not eye-catching, but it is comfortable, functional and timeless.(Michael Kors Outlet Sale)
It is the incontestable fact that Michael Kors Handbags are in hot pursuit among celebrities and socialites.(Michael Kors Outlet Online)
The sleek lines and classic detailing of this bag make it easy to wear with any outfit and give the tote a timeless quality sure to carry you from season to season.(click here)

Add comment

Name:*
E-Mail:*
Text:
Bold Italic Underline Strike | Align left Center Align right | Insert smilies Insert link URLInsert protected URL Select color | Add Hidden Text Insert Quote Convert selected text from selection to Cyrillic (Russian) alphabet Insert spoiler
Enter the code: *

Create an account

Advertising