» » Judwaa 2 (2017) 1080p - HDRip - x264 - AAC - [TeamHHD]

Judwaa 2 (2017) 1080p - HDRip - x264 - AAC - [TeamHHD]

Judwaa 2 (2017) 1080p - HDRip - x264 - AAC - [TeamHHD]








General
Format                                   : Matroska
Format version                           : Version 4 / Version 2
File size                                : 3.00 GiB
Duration                                 : 2 h 19 min
Overall bit rate                         : 3 083 kb/s
Movie name                               : Judwaa 2---Pasha@Hon3yHD

Video
Format                                   : AVC
Format/Info                              : Advanced Video Codec
Format profile                           : High@L4.1
Format settings, CABAC                   : Yes
Format settings, RefFrames               : 5 frames
Codec ID                                 : V_MPEG4/ISO/AVC
Duration                                 : 2 h 19 min
Bit rate                                 : 2 890 kb/s
Width                                    : 1 920 pixels
Height                                   : 800 pixels
Display aspect ratio                     : 2.40:1
Frame rate mode                          : Constant
Frame rate                               : 25.000 FPS
Color space                              : YUV
Chroma subsampling                       : 4:2:0
Bit depth                                : 8 bits
Scan type                                : Progressive
Bits/(Pixel*Frame)                       : 0.075
Stream size                              : 2.81 GiB (94%)
Title                                    : Judwaa 2---Pasha@Hon3yHD

Audio 1
Format                                   : AC-3
Format/Info                              : Audio Coding 3
Format settings, Endianness              : Big
Codec ID                                 : A_AC3
Duration                                 : 2 h 19 min
Bit rate mode                            : Constant
Bit rate                                 : 192 kb/s
Channel(s)                               : 2 channels
Channel positions                        : Front: L R
Sampling rate                            : 48.0 kHz
Frame rate                               : 31.250 FPS (1536 SPF)
Bit depth                                : 16 bits
Compression mode                         : Lossy
Delay relative to video                  : 700 ms
Stream size                              : 191 MiB (6%)
Title                                    : Hindi---Pasha@Hon3yHD
Language                                 : Hindi
Service kind                             : Complete Main
Default                                  : Yes

SubTitle
Format                                   : UTF-8
Codec ID                                 : S_TEXT/UTF8
Codec ID/Info                            : UTF-8 Plain Text
Duration                                 : 2 h 17 min
Bit rate                                 : 86 b/s
Count of elements                        : 2226
Stream size                              : 87.0 KiB (0%)
Title                                    : English---Pasha@Hon3yHD
Language                                 : English
Default                                  : Yes
Forced                                   : No




Judwaa 2 (2017) 1080p - HDRip - x264 - AAC - [TeamHHD]
Judwaa 2 (2017) 1080p - HDRip - x264 - AAC - [TeamHHD]
Judwaa 2 (2017) 1080p - HDRip - x264 - AAC - [TeamHHD]
Judwaa 2 (2017) 1080p - HDRip - x264 - AAC - [TeamHHD]


SINGLE DIRECT FAST LINKS

http://www.heroupload.com/8e9fa937debc3558/Judwaa.2.2017.Hindi.HDRip.1080p.x264.AAC.2.0.ESub-HHD.mkv


700MB LINKS



http://www.heroupload.com/26ef8eecf155efa5/Judwaa.2.2017.Hindi.HDRip.1080p.x264.AAC.2.0.ESub-HHD.part1.rar
http://www.heroupload.com/6b0423f84aaa7146/Judwaa.2.2017.Hindi.HDRip.1080p.x264.AAC.2.0.ESub-HHD.part2.rar
http://www.heroupload.com/a9eb8f4acb2b05ea/Judwaa.2.2017.Hindi.HDRip.1080p.x264.AAC.2.0.ESub-HHD.part3.rar
http://www.heroupload.com/c1c9f604604b28b8/Judwaa.2.2017.Hindi.HDRip.1080p.x264.AAC.2.0.ESub-HHD.part4.rar
http://www.heroupload.com/57926e7064ecc982/Judwaa.2.2017.Hindi.HDRip.1080p.x264.AAC.2.0.ESub-HHD.part5.rar


Tags: Judwaa

Comments:

Dear visitor, you went to the site as unregistered user
We encourage you to create an account or enter the site under your name

Add comment

Name:*
E-Mail:*
Text:
Bold Italic Underline Strike | Align left Center Align right | Insert smilies Insert link URLInsert protected URL Select color | Add Hidden Text Insert Quote Convert selected text from selection to Cyrillic (Russian) alphabet Insert spoiler
Enter the code: *

Create an account

Partner Site

Advertising