» » A Aa (2018) Hindi - 1080p - WEB-HD - AVC - AAC-Aditya

A Aa (2018) Hindi - 1080p - WEB-HD - AVC - AAC-Aditya

A Aa (2018) Hindi - 1080p - WEB-HD - AVC - AAC-Aditya





Format                      : MPEG-4
Format profile              : Base Media
Codec ID                    : isom (isom/iso2/avc1/mp41)
File size                   : 1.90 GiB
Duration                    : 2 h 32 min
Overall bit rate            : 1 781 kb/s
Writing application         : Lavf58.9.100

Video
ID                          : 1
Format                      : AVC
Format/Info                 : Advanced Video Codec
Format profile              : High@L4
Format settings, CABAC      : Yes
Format settings, RefFrames  : 3 frames
Codec ID                    : avc1
Codec ID/Info               : Advanced Video Coding
Duration                    : 2 h 32 min
Bit rate                    : 1 650 kb/s
Width                       : 1 920 pixels
Height                      : 1 080 pixels
Display aspect ratio        : 16:9
Frame rate mode             : Constant
Frame rate                  : 24.000 FPS
Color space                 : YUV
Chroma subsampling          : 4:2:0
Bit depth                   : 8 bits
Scan type                   : Progressive
Bits/(Pixel*Frame)          : 0.033
Stream size                 : 1.76 GiB (93%)
Color range                 : Limited
Color primaries             : BT.709
Transfer characteristics    : BT.709
Matrix coefficients         : BT.709

Audio
ID                          : 2
Format                      : AAC
Format/Info                 : Advanced Audio Codec
Format profile              : LC
Codec ID                    : 40
Duration                    : 2 h 32 min
Bit rate mode               : Constant
Bit rate                    : 126 kb/s
Channel(s)                  : 2 channels
Channel positions           : Front: L R
Sampling rate               : 44.1 kHz
Frame rate                  : 43.066 FPS (1024 SPF)
Compression mode            : Lossy
Stream size                 : 137 MiB (7%)
Language                    : English
Default                     : Yes
Alternate group             : 1



A Aa (2018) Hindi - 1080p - WEB-HD - AVC - AAC-Aditya
A Aa (2018) Hindi - 1080p - WEB-HD - AVC - AAC-AdityaA Aa (2018) Hindi - 1080p - WEB-HD - AVC - AAC-AdityaA Aa (2018) Hindi - 1080p - WEB-HD - AVC - AAC-AdityaA Aa (2018) Hindi - 1080p - WEB-HD - AVC - AAC-AdityaA Aa (2018) Hindi - 1080p - WEB-HD - AVC - AAC-AdityaA Aa (2018) Hindi - 1080p - WEB-HD - AVC - AAC-Aditya

SINGLE DIRECT FAST LINKS
http://www.heroupload.us/0274b8b78608d153/A.Aa.2018.1080p.WEB-HD.AVC.AAC-Aditya.mp4


http://filefloater.com/Urw/A.Aa.2018.1080p.WEB-HD.AVC.AAC-Aditya.mp4


Buy Premium From My Links & Support Me

Tags: A

Comments:

Dear visitor, you went to the site as unregistered user
We encourage you to create an account or enter the site under your name

Add comment

Name:*
E-Mail:*
Text:
Bold Italic Underline Strike | Align left Center Align right | Insert smilies Insert link URLInsert protected URL Select color | Add Hidden Text Insert Quote Convert selected text from selection to Cyrillic (Russian) alphabet Insert spoiler
Enter the code: *

Create an account

Advertising