» » DJ Duvvada Jagannadham (2017) 1080p - WEBHD - x264 - DD5.1 [Dual Audio][Telugu+Hindi]

DJ Duvvada Jagannadham (2017) 1080p - WEBHD - x264 - DD5.1 [Dual Audio][Telugu+Hindi]

DJ Duvvada Jagannadham (2017) 1080p - WEBHD - x264 - DD5.1 [Dual Audio][Telugu+Hindi]

DJ Duvvada Jagannadham (2017) 1080p - WEBHD - x264 - DD5.1 [Dual Audio][Telugu+Hindi] : 2.60 GiB

English Subtitles Added
Telugu Audio Original
Hindi Audio Original





General
Format                      : Matroska
Format version              : Version 4 / Version 2
File size                   : 2.60 GiB
Duration                    : 2 h 1 min
Overall bit rate            : 3 066 kb/s
Encoded date                : UTC 2017-11-19 18:14:56
Writing application         : mkvmerge v7.0.0 ('Where We Going') 32bit built on Jun  9 2014 15:08:34
Writing library             : libebml v1.3.0 + libmatroska v1.4.1

Video
ID                          : 1
Format                      : AVC
Format/Info                 : Advanced Video Codec
Format profile              : High@L4
Format settings, CABAC      : Yes
Format settings, RefFrames  : 2 frames
Codec ID                    : V_MPEG4/ISO/AVC
Duration                    : 2 h 1 min
Bit rate                    : 2 777 kb/s
Width                       : 1 920 pixels
Height                      : 1 080 pixels
Display aspect ratio        : 16:9
Frame rate mode             : Constant
Frame rate                  : 25.000 FPS
Color space                 : YUV
Chroma subsampling          : 4:2:0
Bit depth                   : 8 bits
Scan type                   : Progressive
Bits/(Pixel*Frame)          : 0.054
Stream size                 : 2.35 GiB (91%)
Language                    : Hindi
Default                     : Yes
Forced                      : No
Color range                 : Limited
Color primaries             : BT.709
Transfer characteristics    : BT.709
Matrix coefficients         : BT.709

Audio #1
ID                          : 2
Format                      : AC-3
Format/Info                 : Audio Coding 3
Format settings, Endianness : Big
Codec ID                    : A_AC3
Duration                    : 2 h 1 min
Bit rate mode               : Constant
Bit rate                    : 160 kb/s
Channel(s)                  : 6 channels
Channel positions           : Front: L C R, Side: L R, LFE
Sampling rate               : 44.1 kHz
Frame rate                  : 28.711 FPS (1536 SPF)
Bit depth                   : 16 bits
Compression mode            : Lossy
Stream size                 : 139 MiB (5%)
Language                    : Telugu
Service kind                : Complete Main
Default                     : Yes
Forced                      : No

Audio #2
ID                          : 3
Format                      : AAC
Format/Info                 : Advanced Audio Codec
Format profile              : LC
Codec ID                    : A_AAC
Duration                    : 2 h 1 min
Bit rate                    : 126 kb/s
Channel(s)                  : 2 channels
Channel positions           : Front: L R
Sampling rate               : 44.1 kHz
Frame rate                  : 43.066 FPS (1024 SPF)
Compression mode            : Lossy
Stream size                 : 109 MiB (4%)
Language                    : Hindi
Default                     : No
Forced                      : No

Text
ID                          : 4
Format                      : UTF-8
Codec ID                    : S_TEXT/UTF8
Codec ID/Info               : UTF-8 Plain Text
Duration                    : 2 h 0 min
Bit rate                    : 85 b/s
Count of elements           : 2057
Stream size                 : 75.4 KiB (0%)
Language                    : English
Default                     : Yes
Forced                      : No



DJ Duvvada Jagannadham (2017) 1080p - WEBHD - x264 - DD5.1 [Dual Audio][Telugu+Hindi]DJ Duvvada Jagannadham (2017) 1080p - WEBHD - x264 - DD5.1 [Dual Audio][Telugu+Hindi]DJ Duvvada Jagannadham (2017) 1080p - WEBHD - x264 - DD5.1 [Dual Audio][Telugu+Hindi]DJ Duvvada Jagannadham (2017) 1080p - WEBHD - x264 - DD5.1 [Dual Audio][Telugu+Hindi]



SINGLE DIRECT FAST LINKS


http://www.heroupload.com/6a084597e73aff21/DJ.Duvvada.Jagannadham.2017.WEB-HD.1080p.Telugu.Org+Hindi.Org.5.1.ESub-GM.Exclusive.mkv


700MB LINKS



http://www.heroupload.com/74b7f9eb4dc3ea06/DJ.Duvvada.Jagannadham.2017.WEB-HD.1080p.Telugu.Org+Hindi.Org.5.1.ESub-GM.Exclusive.part1.rar
http://www.heroupload.com/cf00cfd2dd824a54/DJ.Duvvada.Jagannadham.2017.WEB-HD.1080p.Telugu.Org+Hindi.Org.5.1.ESub-GM.Exclusive.part2.rar
http://www.heroupload.com/132eb92f08c4cddb/DJ.Duvvada.Jagannadham.2017.WEB-HD.1080p.Telugu.Org+Hindi.Org.5.1.ESub-GM.Exclusive.part3.rar
http://www.heroupload.com/712fff7beff3380f/DJ.Duvvada.Jagannadham.2017.WEB-HD.1080p.Telugu.Org+Hindi.Org.5.1.ESub-GM.Exclusive.part4.rar
http://www.heroupload.com/b43c3e54229311eb/DJ.Duvvada.Jagannadham.2017.WEB-HD.1080p.Telugu.Org+Hindi.Org.5.1.ESub-GM.Exclusive.srt




Tags: DJ

Comments:

Dear visitor, you went to the site as unregistered user
We encourage you to create an account or enter the site under your name

Add comment

Name:*
E-Mail:*
Text:
Bold Italic Underline Strike | Align left Center Align right | Insert smilies Insert link URLInsert protected URL Select color | Add Hidden Text Insert Quote Convert selected text from selection to Cyrillic (Russian) alphabet Insert spoiler
Enter the code: *

Create an account

Partner Site

Advertising